<?xml version="1.0" encoding="UTF-8"?>
<svg xmlns="http://www.w3.org/2000/svg" xmlns:xlink="http://www.w3.org/1999/xlink" version="1.2">
<font id="BoutrosAsma Bold">
<font-face font-family="BoutrosAsma" units-per-em="1000" ascent="728" descent="-210" font-style="normal" font-weight="700" font-stretch="normal" cap-height="716" x-height="530" underline-position="-94" underline-thickness="63"/>
<missing-glyph horiz-adv-x="184" d="M18 0 L18 716 L166 716 L166 0 L18 0 Z M148 18 L148 698 L36 698 L36 18 L148 18 Z "/>
<glyph glyph-name="space" unicode=" " horiz-adv-x="184" d=""/>
<glyph glyph-name="exclam" unicode="!" horiz-adv-x="267" d="M185 716 L185 216 L130 172 L76 172 L76 716 L185 716 Z M133 124 Q160 124 179 105.5 Q198 87 198 60 Q198 33 179 14 Q160 -5 133 -5 Q107 -5 88 14 Q69 33 69 60 Q69 87 87.5 105.5 Q106 124 133 124 Z "/>
<glyph glyph-name="quotedbl" unicode="&quot;" horiz-adv-x="401" d="M171 716 L171 530 L119 488 L69 488 L69 716 L171 716 Z M332 716 L332 530 L280 488 L230 488 L230 716 L332 716 Z "/>
<glyph glyph-name="numbersign" unicode="#" horiz-adv-x="609" d="M509 672 L472 479 L588 479 L588 394 L456 394 L432 276 L556 276 L556 191 L417 191 L380 0 L287 0 L323 191 L227 191 L191 0 L99 0 L134 191 L20 191 L20 276 L150 276 L174 394 L53 394 L53 479 L189 479 L225 672 L319 672 L282 479 L381 479 L418 672 L509 672 Z M364 394 L266 394 L242 276 L340 276 L364 394 Z "/>
<glyph glyph-name="dollar" unicode="$" horiz-adv-x="615" d="M340 716 L340 642 Q410 633 464 604 L464 510 Q394 538 340 543 L340 388 Q442 352 480 315 Q523 275 523 209 Q523 139 476 97 Q428 53 340 43 L340 -55 L277 -55 L277 41 Q202 42 142 62 L92 124 L92 166 Q134 152 184 144 Q233 136 268 136 L277 136 L277 300 Q176 336 138 376 Q98 416 98 481 Q98 548 146 590 Q195 633 277 640 L277 716 L340 716 Z M277 413 L277 541 Q248 538 231 523 Q217 507 217 483 Q217 460 228 446 Q240 427 277 413 Z M340 275 L340 141 Q369 145 385 160 Q404 176 404 207 Q404 231 389 247 Q377 261 340 275 Z "/>
<glyph glyph-name="percent" unicode="%" horiz-adv-x="801" d="M179 690 Q255 690 299 630 Q341 571 341 476 Q341 381 299 326 Q257 272 180 272 Q99 272 58 329 Q18 383 18 475 Q18 570 58 627 Q99 690 179 690 Z M646 673 L250 0 L152 0 L549 673 L646 673 Z M179 626 Q139 626 120 584 Q102 544 102 475 Q102 415 117 380 Q135 336 179 336 Q222 336 242 380 Q257 417 257 475 Q257 543 238 584 Q217 626 179 626 Z M620 400 Q697 400 740 340 Q783 279 783 186 Q783 92 740 36 Q698 -18 621 -18 Q540 -18 499 39 Q459 93 459 186 Q459 280 499 338 Q542 400 620 400 Z M620 336 Q580 336 562 294 Q543 255 543 186 Q543 129 558 90 Q576 46 620 46 Q664 46 683 91 Q698 126 698 186 Q698 253 679 294 Q660 336 620 336 Z "/>
<glyph glyph-name="ampersand" unicode="&amp;" horiz-adv-x="709" d="M516 377 L628 377 Q628 370 628 367 Q628 247 560 162 L691 0 L532 0 L478 66 Q418 21 377.5 4.5 Q337 -12 286 -12 Q175 -12 110 54 Q54 111 54 200 Q54 274 93 321 Q127 362 208 405 Q157 464 142 492.5 Q127 521 127 557 Q127 632 187 680 Q239 722 313 722 Q397 722 446 675 Q488 633 488 570 Q488 516 463.5 478.5 Q439 441 373 395 L487 254 Q517 310 517 364 Q517 370 516 377 Z M273 325 L227 295 Q203 277 193.5 259.5 Q184 242 184 217 Q184 169 220 133 Q252 102 289 102 Q336 102 407 156 L273 325 Z M311 473 Q370 506 370 558 Q370 615 313 615 Q288 615 272 601.5 Q256 588 256 567 Q256 550 264.5 534.5 Q273 519 300 487 L311 473 Z "/>
<glyph glyph-name="quotesingle" unicode="'" horiz-adv-x="240" d="M171 716 L171 530 L119 488 L69 488 L69 716 L171 716 Z "/>
<glyph glyph-name="parenleft" unicode="(" horiz-adv-x="336" d="M248 716 L290 682 Q235 600 206 495 Q181 400 181 302 Q181 191 214 87 Q238 12 290 -73 L248 -106 L213 -106 Q142 -25 108 82 Q74 184 74 301 Q74 420 108 523 Q142 632 213 716 L248 716 Z "/>
<glyph glyph-name="parenright" unicode=")" horiz-adv-x="336" d="M88 716 L124 716 Q192 635 229 523 Q262 418 262 301 Q262 186 229 82 Q192 -28 124 -106 L88 -106 L46 -73 Q96 6 122 87 Q155 191 155 302 Q155 405 130 495 Q101 600 46 682 L88 716 Z "/>
<glyph glyph-name="asterisk" unicode="*" horiz-adv-x="382" d="M129 534 L23 569 L44 637 L151 602 L151 716 L221 716 L221 602 L328 637 L349 569 L243 534 L309 442 L252 400 L186 492 L120 400 L63 442 L129 534 Z "/>
<glyph glyph-name="plus" unicode="+" horiz-adv-x="526" d="M218 21 L218 191 L46 191 L46 282 L218 282 L218 455 L308 455 L308 282 L480 282 L480 191 L308 191 L308 21 L218 21 Z "/>
<glyph glyph-name="comma" unicode="," horiz-adv-x="272" d="M132 135 Q154 135 172 122 Q197 103 201 67 Q202 61 202 55 Q202 17 181 -29 Q162 -70 131 -104 L100 -104 L76 -85 Q99 -52 109 -30 Q120 -10 124 7 Q96 11 82 30 Q69 46 69 70 Q69 91 79 107 Q97 135 132 135 Z "/>
<glyph glyph-name="hyphen" unicode="-" horiz-adv-x="321" d="M284 294 L284 191 L37 191 L37 294 L284 294 Z "/>
<glyph glyph-name="period" unicode="." horiz-adv-x="267" d="M133 124 Q160 124 179 105.5 Q198 87 198 60 Q198 33 179 14 Q160 -5 133 -5 Q107 -5 88 14 Q69 33 69 60 Q69 87 87.5 105.5 Q106 124 133 124 Z "/>
<glyph glyph-name="slash" unicode="/" horiz-adv-x="381" d="M372 673 L121 0 L9 0 L260 673 L372 673 Z "/>
<glyph glyph-name="zero" unicode="0" horiz-adv-x="553" d="M276 688 Q341 688 387 658 Q424 634 454 587 Q516 489 516 331 Q516 172 454 81 Q420 34 377.5 12 Q335 -10 277 -10 Q208 -10 162 19 Q125 42 96 86 Q37 178 37 330 Q37 486 96 584 Q129 638 172.5 663 Q216 688 276 688 Z M276 585 Q244 585 223.5 568 Q203 551 188 513 Q159 448 159 330 Q159 229 182 169 Q209 94 276 94 Q311 94 333 111.5 Q355 129 370 169 Q394 229 394 330 Q394 446 364 513 Q349 551 328 568 Q307 585 276 585 Z "/>
<glyph glyph-name="one" unicode="1" horiz-adv-x="397" d="M328 673 L328 50 L266 0 L206 0 L206 534 L90 445 L32 518 L226 673 L328 673 Z "/>
<glyph glyph-name="two" unicode="2" horiz-adv-x="493" d="M248 686 L258 686 Q330 686 378 652 Q418 624 436 574 Q446 541 446 506 Q446 460 429 421 Q400 352 317 261 Q277 215 227 162 L168 102 L461 102 L461 62 L411 0 L32 0 L32 102 L106 178 Q129 202 178 252 Q235 310 253 330 Q301 385 318 420 Q335 453 335 485 Q335 518 317 540 Q290 579 230 577 Q174 576 123 537 L62 623 Q145 684 248 686 Z "/>
<glyph glyph-name="three" unicode="3" horiz-adv-x="499" d="M217 686 Q323 684 383 632 Q438 583 438 503 Q438 459 417 424 Q385 366 314 353 Q384 344 426 294 Q467 248 467 190 Q467 99 392 43 Q329 -7 221 -5 Q145 -5 94 10 L55 58 L55 104 Q114 92 178 92 Q190 92 200 92 Q282 94 317 124 Q345 148 345 188 Q345 240 298 272 Q270 293 232.5 301.5 Q195 310 131 310 L131 403 L232 403 Q284 403 306 438 Q320 458 320 484 Q320 490 319 496 Q316 525 296 545 Q268 573 212 577 Q203 578 193 578 Q147 578 86 562 L86 663 Q162 687 217 686 Z "/>
<glyph glyph-name="four" unicode="4" horiz-adv-x="536" d="M423 673 L423 257 L513 257 L513 153 L423 153 L423 50 L362 0 L304 0 L304 153 L23 153 L23 241 L306 673 L423 673 Z M304 513 L136 257 L304 257 L304 513 Z "/>
<glyph glyph-name="five" unicode="5" horiz-adv-x="497" d="M407 673 L407 571 L187 571 L177 414 Q205 418 230 418 Q251 418 270 415 Q313 411 347 394 Q423 359 448 278 Q460 238 460 195 Q460 149 441 111 Q424 72 385 43 Q322 -7 214 -5 Q138 -5 87 10 L48 58 L48 104 Q107 92 171 92 Q183 92 193 92 Q275 94 310 124 Q338 150 338 196 Q338 257 315 282 Q286 314 224 320 Q205 322 181 322 Q162 322 141 321 Q121 319 53 313 L74 673 L407 673 Z "/>
<glyph glyph-name="six" unicode="6" horiz-adv-x="537" d="M315 676 Q328 677 342 677 Q374 677 404 671 L447 619 L447 577 Q381 584 365 584 Q266 584 213 523 Q189 497 176 460 Q159 415 155 354 Q208 424 300 424 Q378 424 432 382 Q502 323 502 218 Q502 110 442 48 Q385 -11 283 -11 Q175 -11 116 54 Q88 85 72 127 Q50 188 50 259 L50 287 Q50 410 86 501 Q120 583 180 627 Q237 668 315 676 Z M276 328 Q238 328 209 304 Q174 276 168 239 Q168 157 199 122 Q228 91 281 91 Q326 91 353 126 Q380 159 380 215 Q380 266 352 297 Q323 328 276 328 Z "/>
<glyph glyph-name="seven" unicode="7" horiz-adv-x="514" d="M484 672 L484 592 L257 54 L191 0 L105 0 L352 570 L30 570 L30 672 L484 672 Z "/>
<glyph glyph-name="eight" unicode="8" horiz-adv-x="547" d="M278 687 Q367 687 423 643 Q478 601 478 522 Q478 472 445 426 Q418 386 352 349 Q424 317 460 280 Q506 232 506 166 Q506 93 450 46 Q384 -10 273 -10 Q173 -10 108 36 Q42 83 42 171 Q42 228 87 275 Q123 313 196 348 Q141 375 108 423 Q71 471 71 521 Q71 604 127 646 Q183 687 278 687 Z M275 600 Q238 600 216 580 Q193 560 193 522 Q193 488 213 455 Q238 417 278 396 Q317 418 338 453 Q356 485 356 525 Q356 559 338 578 Q316 600 275 600 Z M275 305 Q216 277 196 255 Q164 221 165 174 Q165 133 194 110.5 Q223 88 275 88 Q330 88 360 113 Q387 135 387 173 Q388 219 356 253 Q332 279 275 305 Z "/>
<glyph glyph-name="nine" unicode="9" horiz-adv-x="525" d="M257 687 Q358 687 416 623 Q484 549 484 388 Q484 265 466 196 Q444 114 391 66 Q326 4 229 -1 Q220 -2 208 -2 Q173 -2 134 6 L95 54 L95 101 Q128 93 175 93 Q284 93 333 150 Q355 174 365 213 Q375 252 377 321 Q357 293 326 274 Q285 249 233 249 Q159 249 108 289 Q37 345 37 456 Q37 567 96 628 Q153 687 257 687 Z M261 584 Q208 584 182 546 Q157 515 157 459 Q157 413 183 380 Q211 346 256 346 Q300 346 333 377 Q362 408 362 447 Q362 523 332 557 Q307 584 261 584 Z "/>
<glyph glyph-name="colon" unicode=":" horiz-adv-x="267" d="M133 334 Q160 334 179 315 Q198 296 198 269 Q198 243 179 224 Q160 205 133 205 Q107 205 88 224 Q69 243 69 269 Q69 296 88 315 Q107 334 133 334 Z M134 124 Q161 124 179.5 105.5 Q198 87 198 60 Q198 33 179 14 Q160 -5 134 -5 Q107 -5 88 14 Q69 33 69 60 Q69 87 88 105.5 Q107 124 134 124 Z "/>
<glyph glyph-name="semicolon" unicode=";" horiz-adv-x="272" d="M132 135 Q154 135 172 122 Q197 103 201 67 Q202 61 202 55 Q202 17 181 -29 Q162 -70 131 -104 L100 -104 L76 -85 Q99 -52 109 -30 Q120 -10 124 7 Q96 11 82 30 Q69 46 69 70 Q69 91 79 107 Q97 135 132 135 Z M132 203 Q105 203 86.5 222 Q68 241 68 268 Q68 295 86.5 314 Q105 333 132 333 Q159 333 178 314 Q197 295 197 268 Q197 241 178 222 Q159 203 132 203 Z "/>
<glyph glyph-name="less" unicode="&lt;" horiz-adv-x="517" d="M476 584 L476 485 L167 332 L476 197 L476 99 L42 298 L42 358 L476 584 Z "/>
<glyph glyph-name="equal" unicode="=" horiz-adv-x="526" d="M480 279 L46 279 L46 369 L480 369 L480 279 Z M480 97 L46 97 L46 187 L480 187 L480 97 Z "/>
<glyph glyph-name="greater" unicode="&gt;" horiz-adv-x="517" d="M42 584 L476 358 L476 298 L42 99 L42 197 L351 332 L42 485 L42 584 Z "/>
<glyph glyph-name="question" unicode="?" horiz-adv-x="600" d="M363 193 L241 193 L241 216 Q242 266 264 305 Q286 344 339 387 Q382 423 395 443.5 Q408 464 408 498 Q408 550 375 583 Q346 611 305 611 Q255 611 224 570 Q197 534 197 481 L197 468 L63 468 Q64 528 74.5 567.5 Q85 607 109 639 Q174 727 301 727 Q418 727 487 656 Q546 594 546 498 Q546 438 521.5 398.5 Q497 359 428 310 Q382 277 372.5 260 Q363 243 363 193 Z M378 143 L378 0 L231 0 L231 143 L378 143 Z "/>
<glyph glyph-name="at" unicode="@" horiz-adv-x="812" d="M407 684 Q571 684 673 585 Q716 542 740.5 479.5 Q765 417 765 347 Q767 234 712 164 Q666 102 590 102 Q533 102 495 143 Q450 101 386 103 Q323 105 280 145 Q222 200 222 299 Q222 399 283 454 Q334 498 409 499 Q452 499 491 481 L528 511 L574 511 L574 220 Q574 193 602 193 Q638 191 655 225 Q678 265 678 328 Q678 339 677 349 Q674 402 655.5 449.5 Q637 497 607 528 Q537 600 407 600 Q302 600 225 526 Q139 442 139 311 Q139 181 221 97 Q275 37 380 26 Q397 25 414 25 Q465 25 516 36 L516 3 L477 -46 Q427 -57 381 -57 Q357 -57 334 -54 Q230 -42 159 25 Q47 122 46 309 Q45 404 86 486 Q120 555 179 604 Q277 684 407 684 Z M410 415 Q376 412 352 390 Q319 359 319 301 Q319 235 355 205 Q373 187 401 185 Q410 184 418 184 Q448 184 474 200 L474 406 Q446 415 419 415 L410 415 Z "/>
<glyph glyph-name="A" unicode="A" horiz-adv-x="709" d="M492 144 L224 144 L176 0 L26 0 L280 716 L443 716 L691 0 L539 0 L492 144 Z M452 267 L359 547 L265 267 L452 267 Z "/>
<glyph glyph-name="B" unicode="B" horiz-adv-x="697" d="M75 0 L75 716 L393 716 Q503 716 563 664 Q594 637 611 601 Q628 565 628 527 Q628 481 605.5 447.5 Q583 414 530 379 Q648 310 648 206 Q648 163 628.5 121.5 Q609 80 577 52 Q515 0 396 0 L75 0 Z M222 593 L222 431 L382 431 Q487 431 487 512 Q487 593 382 593 L222 593 Z M222 308 L222 123 L397 123 Q507 123 507 216 Q507 308 397 308 L222 308 Z "/>
<glyph glyph-name="C" unicode="C" horiz-adv-x="709" d="M669 477 L529 477 Q500 601 376 601 Q282 601 233 527 Q190 462 190 354 Q190 232 244 169 Q291 113 371 113 Q444 113 486 154 Q522 190 529 252 L672 252 Q665 122 572 51 Q492 -11 367 -11 Q207 -11 119 101 Q43 199 43 357 Q43 539 143 639 Q230 727 370 727 Q536 727 621 616 Q663 562 669 477 Z "/>
<glyph glyph-name="D" unicode="D" horiz-adv-x="709" d="M75 0 L75 716 L355 716 Q437 716 490.5 696.5 Q544 677 581 633 Q668 530 668 358 Q668 187 581 83 Q545 40 491 20 Q437 0 355 0 L75 0 Z M222 123 L354 123 Q521 123 521 358 Q521 593 354 593 L222 593 L222 123 Z "/>
<glyph glyph-name="E" unicode="E" horiz-adv-x="652" d="M222 308 L222 123 L610 123 L610 0 L75 0 L75 716 L592 716 L592 593 L222 593 L222 431 L565 431 L565 308 L222 308 Z "/>
<glyph glyph-name="F" unicode="F" horiz-adv-x="602" d="M222 308 L222 0 L75 0 L75 716 L578 716 L578 593 L222 593 L222 431 L536 431 L536 308 L222 308 Z "/>
<glyph glyph-name="G" unicode="G" horiz-adv-x="764" d="M698 390 L698 0 L610 0 L592 102 Q550 42 499.5 15.5 Q449 -11 377 -11 Q280 -11 202 37 Q127 83 84 166 Q41 250 41 357 Q41 534 149 637 Q243 727 388 727 Q527 727 612 655 Q686 592 698 490 L560 490 Q519 601 388 601 Q288 601 234 529 Q188 465 188 360 Q188 245 253 175 Q309 115 392 115 Q482 115 539 181 Q568 214 574 267 L411 267 L411 390 L698 390 Z "/>
<glyph glyph-name="H" unicode="H" horiz-adv-x="725" d="M506 325 L222 325 L222 0 L75 0 L75 716 L222 716 L222 448 L505 448 L505 716 L653 716 L653 0 L506 0 L506 325 Z "/>
<glyph glyph-name="I" unicode="I" horiz-adv-x="294" d="M222 716 L222 0 L75 0 L75 716 L222 716 Z "/>
<glyph glyph-name="J" unicode="J" horiz-adv-x="549" d="M331 716 L478 716 L478 198 Q478 91 410 37 Q351 -11 248 -11 Q146 -11 83 46 Q52 75 38 112.5 Q24 150 24 207 L24 271 L171 271 L171 208 Q171 159 189.5 137 Q208 115 251 115 Q331 115 331 198 L331 716 Z "/>
<glyph glyph-name="K" unicode="K" horiz-adv-x="711" d="M222 239 L222 0 L75 0 L75 716 L222 716 L222 401 L501 716 L676 716 L390 408 L706 0 L530 0 L295 316 L222 239 Z "/>
<glyph glyph-name="L" unicode="L" horiz-adv-x="579" d="M222 716 L222 123 L565 123 L565 0 L75 0 L75 716 L222 716 Z "/>
<glyph glyph-name="M" unicode="M" horiz-adv-x="844" d="M222 558 L222 0 L75 0 L75 716 L295 716 L425 146 L550 716 L772 716 L772 0 L625 0 L625 558 L498 0 L351 0 L222 558 Z "/>
<glyph glyph-name="N" unicode="N" horiz-adv-x="729" d="M510 0 L222 495 L222 0 L75 0 L75 716 L226 716 L510 229 L510 716 L657 716 L657 0 L510 0 Z "/>
<glyph glyph-name="O" unicode="O" horiz-adv-x="768" d="M386 727 Q537 727 630 630 Q680 577 707 499 Q730 431 730 358 Q730 274 700 199 Q674 134 630 86 Q539 -11 386 -11 Q232 -11 141 86 Q90 141 64 217 Q41 284 41 358 Q41 442 71 517 Q97 583 141 630 Q233 727 386 727 Z M386 601 Q290 601 235 526 Q188 461 188 358 Q188 240 249 173 Q302 115 386 115 Q482 115 536 190 Q583 255 583 358 Q583 476 522 543 Q469 601 386 601 Z "/>
<glyph glyph-name="P" unicode="P" horiz-adv-x="656" d="M222 255 L222 0 L75 0 L75 716 L390 716 Q510 716 570 651 Q622 595 622 494 Q622 377 555 312 Q498 255 405 255 L222 255 Z M222 378 L359 378 Q475 378 475 486 Q475 544 443 570 Q415 593 359 593 L222 593 L222 378 Z "/>
<glyph glyph-name="Q" unicode="Q" horiz-adv-x="770" d="M651 110 L734 31 L659 -48 L570 36 Q492 -11 385 -11 Q234 -11 141 86 Q90 140 64 217 Q41 284 41 358 Q41 442 71 517 Q97 582 141 630 Q232 727 386 727 Q539 727 630 630 Q681 575 707 498 Q730 431 730 358 Q730 288 709 222.5 Q688 157 651 110 Z M468 132 L399 198 L474 277 L547 208 Q583 269 583 359 Q583 476 522 543 Q469 601 386 601 Q289 601 235 526 Q188 461 188 358 Q188 240 249 173 Q302 115 386 115 Q430 115 468 132 Z "/>
<glyph glyph-name="R" unicode="R" horiz-adv-x="706" d="M222 284 L222 0 L75 0 L75 716 L458 716 Q550 716 598 667 Q652 612 652 523 Q652 393 530 346 Q599 318 614 278 Q621 259 623.5 226.5 Q626 194 630 85 Q630 61 636.5 49 Q643 37 661 27 L661 0 L503 0 Q489 25 485 48 Q481 71 481 121 Q481 143 482 170 Q482 191 482 199 Q482 244 460.5 264 Q439 284 391 284 L222 284 Z M222 407 L399 407 Q456 407 479 426 Q505 449 505 502 Q505 552 478 574 Q464 585 448 589 Q432 593 399 593 L222 593 L222 407 Z "/>
<glyph glyph-name="S" unicode="S" horiz-adv-x="655" d="M596 500 L458 500 Q451 609 307 609 Q246 609 212 583 Q183 561 183 524 Q183 483 216 464 Q244 447 320 433 L432 411 Q538 391 582 340 Q621 295 621 217 Q621 102 533 41 Q457 -11 327 -11 Q181 -11 104 57 Q37 116 31 221 L174 221 Q178 162 225 133 Q265 107 335 107 Q407 107 446 135 Q480 159 480 199 Q480 241 449.5 264 Q419 287 345 301 L245 319 Q129 341 83 389 Q43 432 43 509 Q43 620 123 677 Q193 727 314 727 Q459 727 532 661 Q595 603 596 500 Z "/>
<glyph glyph-name="T" unicode="T" horiz-adv-x="604" d="M382 593 L382 0 L235 0 L235 593 L17 593 L17 716 L590 716 L590 593 L382 593 Z "/>
<glyph glyph-name="U" unicode="U" horiz-adv-x="714" d="M496 716 L643 716 L643 242 Q643 125 574 62 Q493 -11 359 -11 Q225 -11 144 62 Q75 125 75 242 L75 716 L222 716 L222 242 Q222 115 359 115 Q496 115 496 242 L496 716 Z "/>
<glyph glyph-name="V" unicode="V" horiz-adv-x="652" d="M388 0 L264 0 L22 716 L170 716 L329 176 L485 716 L634 716 L388 0 Z "/>
<glyph glyph-name="W" unicode="W" horiz-adv-x="927" d="M717 0 L585 0 L464 559 L348 0 L215 0 L13 716 L169 716 L280 180 L391 716 L536 716 L652 178 L759 716 L915 716 L717 0 Z "/>
<glyph glyph-name="X" unicode="X" horiz-adv-x="655" d="M411 365 L642 0 L467 0 L329 248 L193 0 L22 0 L248 361 L30 716 L205 716 L330 480 L462 716 L632 716 L411 365 Z "/>
<glyph glyph-name="Y" unicode="Y" horiz-adv-x="643" d="M403 265 L403 0 L256 0 L256 265 L18 716 L182 716 L328 400 L465 716 L629 716 L403 265 Z "/>
<glyph glyph-name="Z" unicode="Z" horiz-adv-x="600" d="M567 716 L567 593 L201 123 L567 123 L567 0 L29 0 L29 123 L395 593 L29 593 L29 716 L567 716 Z "/>
<glyph glyph-name="bracketleft" unicode="[" horiz-adv-x="372" d="M303 716 L303 626 L176 626 L176 -12 L303 -12 L303 -102 L69 -102 L69 716 L303 716 Z "/>
<glyph glyph-name="backslash" unicode="\" horiz-adv-x="381" d="M121 673 L372 0 L260 0 L9 673 L121 673 Z "/>
<glyph glyph-name="bracketright" unicode="]" horiz-adv-x="372" d="M303 716 L303 -102 L69 -102 L69 -12 L197 -12 L197 626 L69 626 L69 716 L303 716 Z "/>
<glyph glyph-name="asciicircum" unicode="^" horiz-adv-x="573" d="M513 265 L402 265 L283 559 L170 265 L60 265 L222 682 L345 682 L513 265 Z "/>
<glyph glyph-name="underscore" unicode="_" horiz-adv-x="384" d="M388 -85 L388 -149 L-3 -149 L-3 -85 L388 -85 Z "/>
<glyph glyph-name="grave" unicode="`" horiz-adv-x="491" d="M99 743 L223 743 L291 596 L223 596 L99 743 Z "/>
<glyph glyph-name="a" unicode="a" horiz-adv-x="546" d="M515 17 L515 0 L364 0 Q355 13 352 22 Q349 31 349 54 Q276 -11 188 -11 Q111 -11 64 36 Q26 74 26 141 Q26 241 106 283 Q139 300 237 316 Q283 323 297 326.5 Q311 330 324 337 Q348 350 348 378 Q348 431 268 431 Q217 431 196.5 415.5 Q176 400 172 358 L39 358 Q52 541 265 541 Q483 541 483 378 L483 82 Q483 61 489.5 47.5 Q496 34 515 17 Z M348 253 Q329 244 290 236 L243 227 Q200 219 185 204 Q164 185 164 157 Q164 130 184 115 Q204 100 238 100 Q295 100 323 135 Q348 165 348 217 L348 253 Z "/>
<glyph glyph-name="b" unicode="b" horiz-adv-x="604" d="M62 716 L200 716 L200 469 Q249 541 346 541 Q452 541 515 454 Q569 379 569 264 Q569 135 498 57 Q436 -11 345 -11 Q249 -11 200 59 L200 0 L62 0 L62 716 Z M315 426 Q258 426 227 377 Q200 334 200 264 Q200 185 235 142 Q266 104 315 104 Q372 104 404 153 Q431 196 431 264 Q431 343 395 387 Q364 426 315 426 Z "/>
<glyph glyph-name="c" unicode="c" horiz-adv-x="544" d="M510 336 L379 336 Q367 387 344.5 408.5 Q322 430 281 430 Q220 430 196 385 Q169 335 169 261 Q169 181 203 137 Q232 99 280 99 Q321 99 343.5 120.5 Q366 142 379 192 L510 192 Q500 91 430 36 Q369 -12 279 -12 Q153 -12 88 68 Q31 138 31 258 Q31 401 106 476 Q171 541 282 541 Q388 541 450 479 Q503 426 510 336 Z "/>
<glyph glyph-name="d" unicode="d" horiz-adv-x="604" d="M536 716 L536 0 L398 0 L398 59 Q350 -11 253 -11 Q148 -11 84 77 Q29 153 29 265 Q29 397 99 474 Q160 541 252 541 Q349 541 398 467 L398 716 L536 716 Z M283 428 Q227 428 195 377 Q167 333 167 265 Q167 188 203 143 Q234 104 283 104 Q339 104 371 154 Q398 197 398 265 Q398 344 362 389 Q331 428 283 428 Z "/>
<glyph glyph-name="e" unicode="e" horiz-adv-x="559" d="M523 229 L167 229 Q170 165 187 138 Q216 94 278 94 Q355 94 381 158 L517 158 Q492 75 419 29 Q355 -11 272 -11 Q151 -11 86 70 Q29 141 29 257 Q29 398 103 475 Q168 541 275 541 Q361 541 424 495 Q479 456 503 389 Q524 333 524 254 Q524 244 523 229 Z M380 320 Q370 436 273 436 Q182 436 169 320 L380 320 Z "/>
<glyph glyph-name="f" unicode="f" horiz-adv-x="327" d="M307 519 L307 428 L227 428 L227 0 L89 0 L89 428 L14 428 L14 519 L89 519 L89 583 Q89 716 223 716 Q255 716 303 713 L303 610 Q282 613 264 613 Q227 613 227 571 L227 519 L307 519 Z "/>
<glyph glyph-name="g" unicode="g" horiz-adv-x="598" d="M398 530 L529 530 L529 5 Q529 -60 511 -101.5 Q493 -143 452 -171 Q388 -214 274 -214 Q156 -214 94 -163 Q43 -122 42 -64 L184 -64 Q201 -126 281 -126 Q332 -126 367 -94 Q398 -66 398 -7 L398 72 Q360 25 327 7 Q294 -11 247 -11 Q144 -11 84 73 Q31 145 31 255 Q31 387 102 470 Q164 541 252 541 Q338 541 398 458 L398 530 Z M280 426 Q227 426 196 374 Q169 329 169 260 Q169 185 204 141 Q234 103 280 103 Q332 103 366 147 Q398 188 398 262 Q398 340 361 386 Q329 426 280 426 Z "/>
<glyph glyph-name="h" unicode="h" horiz-adv-x="592" d="M62 716 L200 716 L200 455 Q256 541 355 541 Q425 541 474 501 Q528 455 528 357 L528 0 L390 0 L390 329 Q390 378 365 403 Q344 424 306 424 Q256 424 226 391 Q200 363 200 320 L200 0 L62 0 L62 716 Z "/>
<glyph glyph-name="i" unicode="i" horiz-adv-x="273" d="M202 530 L202 0 L64 0 L64 530 L202 530 Z M202 716 L202 593 L64 593 L64 716 L202 716 Z "/>
<glyph glyph-name="j" unicode="j" horiz-adv-x="275" d="M205 530 L205 -93 Q205 -162 173 -190 Q144 -214 83 -214 Q48 -214 2 -209 L2 -99 Q14 -103 27 -103 Q49 -103 58 -94 Q67 -85 67 -62 L67 530 L205 530 Z M205 716 L205 593 L67 593 L67 716 L205 716 Z "/>
<glyph glyph-name="k" unicode="k" horiz-adv-x="550" d="M200 324 L374 530 L530 530 L349 330 L543 0 L381 0 L255 233 L200 174 L200 0 L62 0 L62 716 L200 716 L200 324 Z "/>
<glyph glyph-name="l" unicode="l" horiz-adv-x="273" d="M202 716 L202 0 L64 0 L64 716 L202 716 Z "/>
<glyph glyph-name="m" unicode="m" horiz-adv-x="877" d="M62 530 L199 530 L199 466 Q233 507 265.5 524 Q298 541 344 541 Q393 541 431 520.5 Q469 500 488 462 Q519 504 556 522.5 Q593 541 643 541 Q728 541 773 492 Q812 449 812 377 L812 0 L674 0 L674 355 Q674 387 654 406 Q634 425 600 425 Q553 425 528 393 Q506 366 506 320 L506 0 L368 0 L368 355 Q368 387 348 405.5 Q328 424 294 424 Q247 424 222 393 Q200 366 200 320 L200 0 L62 0 L62 530 Z "/>
<glyph glyph-name="n" unicode="n" horiz-adv-x="601" d="M62 530 L200 530 L200 455 Q229 500 266.5 520.5 Q304 541 358 541 Q449 541 496 487 Q536 439 536 357 L536 0 L398 0 L398 329 Q398 424 310 424 Q257 424 226 392 Q200 364 200 320 L200 0 L62 0 L62 530 Z "/>
<glyph glyph-name="o" unicode="o" horiz-adv-x="598" d="M296 541 Q427 541 497 458 Q558 385 558 265 Q558 127 479 53 Q410 -11 296 -11 Q165 -11 95 72 Q34 145 34 265 Q34 402 113 477 Q182 541 296 541 Z M296 430 Q237 430 202 378 Q172 334 172 265 Q172 186 211 140 Q244 100 296 100 Q356 100 390 151 Q420 196 420 265 Q420 344 381 390 Q348 430 296 430 Z "/>
<glyph glyph-name="p" unicode="p" horiz-adv-x="604" d="M199 530 L199 454 Q248 541 346 541 Q394 541 439 518 Q484 495 511 458 Q538 421 553 368.5 Q568 316 568 261 Q568 134 497 56 Q436 -11 347 -11 Q248 -11 199 64 L199 -214 L61 -214 L61 530 L199 530 Z M315 426 Q259 426 227 376 Q199 332 199 264 Q199 187 235 143 Q266 104 315 104 Q370 104 402 154 Q430 197 430 264 Q430 341 394 387 Q362 426 315 426 Z "/>
<glyph glyph-name="q" unicode="q" horiz-adv-x="604" d="M399 530 L537 530 L537 -214 L399 -214 L399 64 Q350 -11 252 -11 Q148 -11 85 75 Q30 150 30 261 Q30 316 45 368.5 Q60 421 87 458 Q114 495 159 518 Q204 541 252 541 Q350 541 399 454 L399 530 Z M283 426 Q228 426 196 375 Q168 332 168 264 Q168 187 204 143 Q235 104 283 104 Q339 104 371 154 Q399 197 399 264 Q399 342 363 387 Q332 426 283 426 Z "/>
<glyph glyph-name="r" unicode="r" horiz-adv-x="382" d="M62 530 L200 530 L200 429 Q224 486 267 515 Q303 541 349 541 Q357 541 364 540 L364 401 Q341 405 322 405 Q200 405 200 284 L200 0 L62 0 L62 530 Z "/>
<glyph glyph-name="s" unicode="s" horiz-adv-x="546" d="M495 365 L362 365 Q361 433 264 433 Q228 433 206.5 420.5 Q185 408 185 387 Q185 372 195.5 363 Q206 354 233 347 L406 298 Q510 269 510 166 Q510 85 447 35 Q388 -11 278 -11 Q33 -11 28 163 L163 163 Q170 126 193.5 111.5 Q217 97 270 97 Q322 97 348 112 Q372 124 372 146 Q372 175 327 189 L163 239 Q126 250 108 259 Q90 268 77 283 Q47 314 47 368 Q47 454 113 500 Q170 541 264 541 Q379 541 440 488 Q494 442 495 365 Z "/>
<glyph glyph-name="t" unicode="t" horiz-adv-x="327" d="M296 530 L296 438 L220 438 L220 143 Q220 114 229.5 103.5 Q239 93 265 93 Q279 93 296 95 L296 0 Q261 -11 218 -11 Q82 -11 82 113 L82 438 L14 438 L14 530 L82 530 L82 673 L220 673 L220 530 L296 530 Z "/>
<glyph glyph-name="u" unicode="u" horiz-adv-x="600" d="M531 0 L393 0 L393 75 Q364 29 326.5 9 Q289 -11 235 -11 Q144 -11 97 43 Q57 90 57 172 L57 530 L195 530 L195 201 Q195 106 283 106 Q337 106 367 138 Q393 166 393 210 L393 530 L531 530 L531 0 Z "/>
<glyph glyph-name="v" unicode="v" horiz-adv-x="543" d="M342 0 L197 0 L12 530 L158 530 L272 142 L380 530 L524 530 L342 0 Z "/>
<glyph glyph-name="w" unicode="w" horiz-adv-x="764" d="M602 0 L460 0 L380 374 L296 0 L155 0 L5 530 L148 530 L232 159 L312 530 L450 530 L529 159 L610 530 L752 530 L602 0 Z "/>
<glyph glyph-name="x" unicode="x" horiz-adv-x="544" d="M346 267 L524 0 L359 0 L269 165 L179 0 L14 0 L191 267 L18 530 L183 530 L269 370 L355 530 L520 530 L346 267 Z "/>
<glyph glyph-name="y" unicode="y" horiz-adv-x="546" d="M387 530 L528 530 L310 -96 Q294 -143 277.5 -164 Q261 -185 233 -197 Q193 -214 134 -214 Q111 -214 85 -210 L85 -107 Q106 -112 121 -112 Q158 -112 184 -86 Q206 -63 206 -33 L206 -22 L9 530 L160 530 L278 144 L387 530 Z "/>
<glyph glyph-name="z" unicode="z" horiz-adv-x="491" d="M451 530 L451 419 L190 111 L460 111 L460 0 L21 0 L21 111 L283 419 L38 419 L38 530 L451 530 Z "/>
<glyph glyph-name="braceleft" unicode="{" horiz-adv-x="382" d="M295 718 L336 666 L336 632 Q317 632 299 629 Q275 626 263 618 Q241 603 241 566 L241 413 Q240 326 133 311 L133 305 Q242 290 241 203 L241 51 Q241 13 263 -1 Q274 -9 301 -13 Q318 -16 336 -16 L336 -50 L295 -102 Q268 -99 265 -99 Q208 -93 175 -73 Q135 -45 135 25 L135 175 Q135 221 101 241 Q72 257 17 257 L17 358 Q76 358 105 377 Q137 397 135 440 L135 591 Q135 661 175 689 Q208 710 265 715 Q268 716 295 718 Z "/>
<glyph glyph-name="bar" unicode="|" horiz-adv-x="213" d="M69 688 L144 688 L144 28 L69 28 L69 688 Z "/>
<glyph glyph-name="braceright" unicode="}" horiz-adv-x="382" d="M47 666 L88 718 Q116 716 118 715 Q177 710 208 689 Q249 661 249 591 L249 440 L249 434 Q249 396 278 377 Q307 358 366 358 L366 257 Q249 257 249 175 L249 25 Q249 -44 208 -73 Q176 -94 116 -100 Q96 -102 89 -102 L47 -50 L47 -16 Q67 -16 84 -13 Q109 -9 121 -1 Q142 14 142 51 L142 203 Q141 290 250 305 L250 311 Q145 326 142 413 L142 566 Q142 602 121 618 Q109 627 81 630 Q59 632 47 632 L47 666 Z "/>
<glyph glyph-name="asciitilde" unicode="~" horiz-adv-x="573" d="M510 282 Q501 139 384 139 Q336 139 302 164 L245 206 Q214 229 187 229 Q160 229 148 214.5 Q136 200 135 165 L59 165 Q67 308 185 308 Q233 308 267 283 L323 241 Q355 218 382 218 Q409 218 420.5 232.5 Q432 247 433 282 L510 282 Z "/>
<glyph glyph-name="Adieresis" unicode="Ä" horiz-adv-x="709" d="M492 144 L224 144 L176 0 L26 0 L280 716 L443 716 L691 0 L539 0 L492 144 Z M452 267 L359 547 L265 267 L452 267 Z M321 905 L321 785 L213 785 L213 905 L321 905 Z M503 905 L503 785 L395 785 L395 905 L503 905 Z "/>
<glyph glyph-name="Aring" unicode="Å" horiz-adv-x="709" d="M492 144 L224 144 L176 0 L26 0 L280 716 L443 716 L691 0 L539 0 L492 144 Z M452 267 L359 547 L265 267 L452 267 Z M359 932 Q399 932 425 903 Q447 878 447 844 Q447 805 418 779 Q393 756 359 756 Q319 756 293 785 Q270 810 270 844 Q270 884 299 910 Q324 932 359 932 Z M359 885 Q342 885 329.5 873 Q317 861 317 844 Q317 827 329.5 815 Q342 803 359 803 Q376 803 388 815 Q400 827 400 844 Q400 861 388 873 Q376 885 359 885 Z "/>
<glyph glyph-name="Ccedilla" unicode="Ç" horiz-adv-x="709" d="M376 -11 L353 -61 Q373 -55 394 -55 Q429 -55 449 -73.5 Q469 -92 469 -125 Q469 -172 432 -195 Q400 -216 343 -216 Q310 -216 282 -210 Q254 -204 207 -188 L225 -137 Q291 -167 328 -167 Q352 -167 368 -155 Q384 -143 384 -126 Q384 -110 370.5 -101 Q357 -92 334 -92 Q310 -92 286 -104 L334 -9 Q275 -4 232.5 13.5 Q190 31 153 66 Q43 168 43 357 Q43 539 143 639 Q230 727 370 727 Q536 727 621 616 Q663 562 669 477 L529 477 Q500 601 376 601 Q284 601 234 526 Q190 462 190 355 Q190 233 244 169 Q291 113 371 113 Q444 113 486 154 Q522 190 529 252 L672 252 Q665 125 575 54 Q497 -8 376 -11 Z "/>
<glyph glyph-name="Eacute" unicode="É" horiz-adv-x="653" d="M222 308 L222 123 L610 123 L610 0 L75 0 L75 716 L592 716 L592 593 L222 593 L222 431 L565 431 L565 308 L222 308 Z M469 919 L345 772 L276 772 L345 919 L469 919 Z "/>
<glyph glyph-name="Ntilde" unicode="Ñ" horiz-adv-x="729" d="M510 0 L222 495 L222 0 L75 0 L75 716 L226 716 L510 229 L510 716 L657 716 L657 0 L510 0 Z M547 911 Q540 785 457 785 Q432 785 400 797 L330 823 Q312 830 299 830 Q268 830 261 785 L199 785 Q202 847 229 879 Q253 907 292 907 Q312 907 346 895 L416 870 Q434 863 450 863 Q479 863 485 911 L547 911 Z "/>
<glyph glyph-name="Odieresis" unicode="Ö" horiz-adv-x="768" d="M341 905 L341 785 L233 785 L233 905 L341 905 Z M524 905 L524 785 L416 785 L416 905 L524 905 Z M379 727 Q530 727 623 630 Q673 577 700 499 Q723 431 723 358 Q723 274 693 199 Q667 134 623 86 Q532 -11 379 -11 Q225 -11 134 86 Q83 141 57 217 Q34 284 34 358 Q34 442 64 517 Q90 583 134 630 Q226 727 379 727 Z M379 601 Q283 601 228 526 Q181 461 181 358 Q181 240 242 173 Q295 115 379 115 Q475 115 529 190 Q576 255 576 358 Q576 476 515 543 Q462 601 379 601 Z "/>
<glyph glyph-name="Udieresis" unicode="Ü" horiz-adv-x="714" d="M322 905 L322 785 L214 785 L214 905 L322 905 Z M504 905 L504 785 L396 785 L396 905 L504 905 Z M496 716 L643 716 L643 242 Q643 125 574 62 Q493 -11 359 -11 Q225 -11 144 62 Q75 125 75 242 L75 716 L222 716 L222 242 Q222 115 359 115 Q496 115 496 242 L496 716 Z "/>
<glyph glyph-name="aacute" unicode="á" horiz-adv-x="546" d="M404 743 L280 596 L211 596 L280 743 L404 743 Z M515 17 L515 0 L364 0 Q355 13 352 22 Q349 31 349 54 Q276 -11 188 -11 Q111 -11 64 36 Q26 74 26 141 Q26 241 106 283 Q139 300 237 316 Q283 323 297 326.5 Q311 330 324 337 Q348 350 348 378 Q348 431 268 431 Q217 431 196.5 415.5 Q176 400 172 358 L39 358 Q52 541 265 541 Q483 541 483 378 L483 82 Q483 61 489.5 47.5 Q496 34 515 17 Z M348 253 Q329 244 290 236 L243 227 Q200 219 185 204 Q164 185 164 157 Q164 130 184 115 Q204 100 238 100 Q295 100 323 135 Q348 165 348 217 L348 253 Z "/>
<glyph glyph-name="agrave" unicode="à" horiz-adv-x="546" d="M130 743 L254 743 L323 596 L254 596 L130 743 Z M515 17 L515 0 L364 0 Q355 13 352 22 Q349 31 349 54 Q276 -11 188 -11 Q111 -11 64 36 Q26 74 26 141 Q26 241 106 283 Q139 300 237 316 Q283 323 297 326.5 Q311 330 324 337 Q348 350 348 378 Q348 431 268 431 Q217 431 196.5 415.5 Q176 400 172 358 L39 358 Q52 541 265 541 Q483 541 483 378 L483 82 Q483 61 489.5 47.5 Q496 34 515 17 Z M348 253 Q329 244 290 236 L243 227 Q200 219 185 204 Q164 185 164 157 Q164 130 184 115 Q204 100 238 100 Q295 100 323 135 Q348 165 348 217 L348 253 Z "/>
<glyph glyph-name="acircumflex" unicode="â" horiz-adv-x="546" d="M217 743 L323 743 L424 596 L347 596 L267 694 L187 596 L112 596 L217 743 Z M515 17 L515 0 L364 0 Q355 13 352 22 Q349 31 349 54 Q276 -11 188 -11 Q111 -11 64 36 Q26 74 26 141 Q26 241 106 283 Q139 300 237 316 Q283 323 297 326.5 Q311 330 324 337 Q348 350 348 378 Q348 431 268 431 Q217 431 196.5 415.5 Q176 400 172 358 L39 358 Q52 541 265 541 Q483 541 483 378 L483 82 Q483 61 489.5 47.5 Q496 34 515 17 Z M348 253 Q329 244 290 236 L243 227 Q200 219 185 204 Q164 185 164 157 Q164 130 184 115 Q204 100 238 100 Q295 100 323 135 Q348 165 348 217 L348 253 Z "/>
<glyph glyph-name="adieresis" unicode="ä" horiz-adv-x="546" d="M230 729 L230 609 L122 609 L122 729 L230 729 Z M413 729 L413 609 L305 609 L305 729 L413 729 Z M515 17 L515 0 L364 0 Q355 13 352 22 Q349 31 349 54 Q276 -11 188 -11 Q111 -11 64 36 Q26 74 26 141 Q26 241 106 283 Q139 300 237 316 Q283 323 297 326.5 Q311 330 324 337 Q348 350 348 378 Q348 431 268 431 Q217 431 196.5 415.5 Q176 400 172 358 L39 358 Q52 541 265 541 Q483 541 483 378 L483 82 Q483 61 489.5 47.5 Q496 34 515 17 Z M348 253 Q329 244 290 236 L243 227 Q200 219 185 204 Q164 185 164 157 Q164 130 184 115 Q204 100 238 100 Q295 100 323 135 Q348 165 348 217 L348 253 Z "/>
<glyph glyph-name="atilde" unicode="ã" horiz-adv-x="546" d="M442 735 Q435 609 349 609 Q327 609 295 621 L225 647 Q207 654 194 654 Q163 654 156 609 L94 609 Q97 671 125 703 Q148 731 187 731 Q206 731 241 719 L312 694 Q330 687 345 687 Q374 687 380 735 L442 735 Z M515 17 L515 0 L364 0 Q355 13 352 22 Q349 31 349 54 Q276 -11 188 -11 Q111 -11 64 36 Q26 74 26 141 Q26 241 106 283 Q139 300 237 316 Q283 323 297 326.5 Q311 330 324 337 Q348 350 348 378 Q348 431 268 431 Q217 431 196.5 415.5 Q176 400 172 358 L39 358 Q52 541 265 541 Q483 541 483 378 L483 82 Q483 61 489.5 47.5 Q496 34 515 17 Z M348 253 Q329 244 290 236 L243 227 Q200 219 185 204 Q164 185 164 157 Q164 130 184 115 Q204 100 238 100 Q295 100 323 135 Q348 165 348 217 L348 253 Z "/>
<glyph glyph-name="aring" unicode="å" horiz-adv-x="546" d="M269 756 Q308 756 334 727 Q356 702 356 668 Q356 628 327 602 Q302 579 268 579 Q228 579 202 608 Q179 633 179 668 Q179 708 208 734 Q233 756 269 756 Z M268 709 Q251 709 238.5 697 Q226 685 226 668 Q226 651 238.5 638.5 Q251 626 268 626 Q285 626 297 638 Q309 650 309 668 Q309 685 297 697 Q285 709 268 709 Z M515 17 L515 0 L364 0 Q355 13 352 22 Q349 31 349 54 Q276 -11 188 -11 Q111 -11 64 36 Q26 74 26 141 Q26 241 106 283 Q139 300 237 316 Q283 323 297 326.5 Q311 330 324 337 Q348 350 348 378 Q348 431 268 431 Q217 431 196.5 415.5 Q176 400 172 358 L39 358 Q52 541 265 541 Q483 541 483 378 L483 82 Q483 61 489.5 47.5 Q496 34 515 17 Z M348 253 Q329 244 290 236 L243 227 Q200 219 185 204 Q164 185 164 157 Q164 130 184 115 Q204 100 238 100 Q295 100 323 135 Q348 165 348 217 L348 253 Z "/>
<glyph glyph-name="ccedilla" unicode="ç" horiz-adv-x="544" d="M289 -12 L266 -62 Q286 -55 307 -55 Q343 -55 362.5 -73.5 Q382 -92 382 -125 Q382 -172 345 -195 Q313 -216 256 -216 Q223 -216 195 -210.5 Q167 -205 120 -188 L139 -137 Q204 -167 241 -167 Q265 -167 281 -155 Q297 -143 297 -126 Q297 -110 283.5 -101 Q270 -92 248 -92 Q224 -92 199 -104 L247 -10 Q135 2 79 79 Q31 147 31 257 Q31 401 106 476 Q171 541 282 541 Q388 541 450 479 Q503 426 510 336 L379 336 Q367 387 344.5 408.5 Q322 430 281 430 Q219 430 196 385 Q169 335 169 261 Q169 181 203 137 Q232 99 280 99 Q321 99 343.5 120.5 Q366 142 379 192 L510 192 Q500 94 434 40 Q376 -8 289 -12 Z "/>
<glyph glyph-name="eacute" unicode="é" horiz-adv-x="559" d="M419 743 L295 596 L227 596 L295 743 L419 743 Z M523 229 L167 229 Q170 165 187 138 Q216 94 278 94 Q355 94 381 158 L517 158 Q492 75 419 29 Q355 -11 272 -11 Q151 -11 86 70 Q29 141 29 257 Q29 398 103 475 Q168 541 275 541 Q361 541 424 495 Q479 456 503 389 Q524 333 524 254 Q524 244 523 229 Z M380 320 Q370 436 273 436 Q182 436 169 320 L380 320 Z "/>
<glyph glyph-name="egrave" unicode="è" horiz-adv-x="559" d="M139 743 L263 743 L331 596 L263 596 L139 743 Z M523 229 L167 229 Q170 165 187 138 Q216 94 278 94 Q355 94 381 158 L517 158 Q492 75 419 29 Q355 -11 272 -11 Q151 -11 86 70 Q29 141 29 257 Q29 398 103 475 Q168 541 275 541 Q361 541 424 495 Q479 456 503 389 Q524 333 524 254 Q524 244 523 229 Z M380 320 Q370 436 273 436 Q182 436 169 320 L380 320 Z "/>
<glyph glyph-name="ecircumflex" unicode="ê" horiz-adv-x="559" d="M232 743 L338 743 L439 596 L363 596 L282 694 L202 596 L127 596 L232 743 Z M523 229 L167 229 Q170 165 187 138 Q216 94 278 94 Q355 94 381 158 L517 158 Q492 75 419 29 Q355 -11 272 -11 Q151 -11 86 70 Q29 141 29 257 Q29 398 103 475 Q168 541 275 541 Q361 541 424 495 Q479 456 503 389 Q524 333 524 254 Q524 244 523 229 Z M380 320 Q370 436 273 436 Q182 436 169 320 L380 320 Z "/>
<glyph glyph-name="edieresis" unicode="ë" horiz-adv-x="559" d="M246 729 L246 609 L138 609 L138 729 L246 729 Z M428 729 L428 609 L320 609 L320 729 L428 729 Z M523 229 L167 229 Q170 165 187 138 Q216 94 278 94 Q355 94 381 158 L517 158 Q492 75 419 29 Q355 -11 272 -11 Q151 -11 86 70 Q29 141 29 257 Q29 398 103 475 Q168 541 275 541 Q361 541 424 495 Q479 456 503 389 Q524 333 524 254 Q524 244 523 229 Z M380 320 Q370 436 273 436 Q182 436 169 320 L380 320 Z "/>
<glyph glyph-name="iacute" unicode="í" horiz-adv-x="273" d="M202 530 L202 0 L64 0 L64 530 L202 530 Z M283 743 L159 596 L91 596 L159 743 L283 743 Z "/>
<glyph glyph-name="igrave" unicode="ì" horiz-adv-x="273" d="M203 530 L203 0 L65 0 L65 530 L203 530 Z M-17 743 L107 743 L175 596 L107 596 L-17 743 Z "/>
<glyph glyph-name="icircumflex" unicode="î" horiz-adv-x="273" d="M202 530 L202 0 L64 0 L64 530 L202 530 Z M86 743 L191 743 L292 596 L216 596 L136 694 L55 596 L-20 596 L86 743 Z "/>
<glyph glyph-name="idieresis" unicode="ï" horiz-adv-x="273" d="M202 530 L202 0 L64 0 L64 530 L202 530 Z M96 729 L96 609 L-12 609 L-12 729 L96 729 Z M278 729 L278 609 L170 609 L170 729 L278 729 Z "/>
<glyph glyph-name="ntilde" unicode="ñ" horiz-adv-x="601" d="M470 735 Q463 609 377 609 Q355 609 323 621 L253 647 Q235 654 222 654 Q191 654 184 609 L122 609 Q125 671 153 703 Q176 731 215 731 Q234 731 269 719 L340 694 Q358 687 373 687 Q402 687 408 735 L470 735 Z M62 530 L200 530 L200 455 Q229 500 266.5 520.5 Q304 541 358 541 Q449 541 496 487 Q536 439 536 357 L536 0 L398 0 L398 329 Q398 424 310 424 Q257 424 226 392 Q200 364 200 320 L200 0 L62 0 L62 530 Z "/>
<glyph glyph-name="oacute" unicode="ó" horiz-adv-x="598" d="M432 743 L308 596 L240 596 L308 743 L432 743 Z M296 541 Q427 541 497 458 Q558 385 558 265 Q558 127 479 53 Q410 -11 296 -11 Q165 -11 95 72 Q34 145 34 265 Q34 402 113 477 Q182 541 296 541 Z M296 430 Q237 430 202 378 Q172 334 172 265 Q172 186 211 140 Q244 100 296 100 Q356 100 390 151 Q420 196 420 265 Q420 344 381 390 Q348 430 296 430 Z "/>
<glyph glyph-name="ograve" unicode="ò" horiz-adv-x="598" d="M158 743 L281 743 L350 596 L281 596 L158 743 Z M296 541 Q427 541 497 458 Q558 385 558 265 Q558 127 479 53 Q410 -11 296 -11 Q165 -11 95 72 Q34 145 34 265 Q34 402 113 477 Q182 541 296 541 Z M296 430 Q237 430 202 378 Q172 334 172 265 Q172 186 211 140 Q244 100 296 100 Q356 100 390 151 Q420 196 420 265 Q420 344 381 390 Q348 430 296 430 Z "/>
<glyph glyph-name="ocircumflex" unicode="ô" horiz-adv-x="598" d="M246 743 L351 743 L452 596 L376 596 L296 694 L215 596 L140 596 L246 743 Z M296 541 Q427 541 497 458 Q558 385 558 265 Q558 127 479 53 Q410 -11 296 -11 Q165 -11 95 72 Q34 145 34 265 Q34 402 113 477 Q182 541 296 541 Z M296 430 Q237 430 202 378 Q172 334 172 265 Q172 186 211 140 Q244 100 296 100 Q356 100 390 151 Q420 196 420 265 Q420 344 381 390 Q348 430 296 430 Z "/>
<glyph glyph-name="odieresis" unicode="ö" horiz-adv-x="598" d="M259 729 L259 609 L151 609 L151 729 L259 729 Z M442 729 L442 609 L334 609 L334 729 L442 729 Z M296 541 Q427 541 497 458 Q558 385 558 265 Q558 127 479 53 Q410 -11 296 -11 Q165 -11 95 72 Q34 145 34 265 Q34 402 113 477 Q182 541 296 541 Z M296 430 Q237 430 202 378 Q172 334 172 265 Q172 186 211 140 Q244 100 296 100 Q356 100 390 151 Q420 196 420 265 Q420 344 381 390 Q348 430 296 430 Z "/>
<glyph glyph-name="otilde" unicode="õ" horiz-adv-x="598" d="M296 541 Q427 541 497 458 Q558 385 558 265 Q558 127 479 53 Q410 -11 296 -11 Q165 -11 95 72 Q34 145 34 265 Q34 402 113 477 Q182 541 296 541 Z M296 430 Q237 430 202 378 Q172 334 172 265 Q172 186 211 140 Q244 100 296 100 Q356 100 390 151 Q420 196 420 265 Q420 344 381 390 Q348 430 296 430 Z M473 735 Q466 609 381 609 Q359 609 326 621 L256 647 Q238 654 225 654 Q195 654 187 609 L126 609 Q129 671 156 703 Q180 731 218 731 Q238 731 273 719 L343 694 Q361 687 377 687 Q405 687 412 735 L473 735 Z "/>
<glyph glyph-name="uacute" unicode="ú" horiz-adv-x="600" d="M427 743 L303 596 L235 596 L303 743 L427 743 Z M531 0 L393 0 L393 75 Q364 29 326.5 9 Q289 -11 235 -11 Q144 -11 97 43 Q57 90 57 172 L57 530 L195 530 L195 201 Q195 106 283 106 Q337 106 367 138 Q393 166 393 210 L393 530 L531 530 L531 0 Z "/>
<glyph glyph-name="ugrave" unicode="ù" horiz-adv-x="600" d="M157 743 L280 743 L349 596 L280 596 L157 743 Z M531 0 L393 0 L393 75 Q364 29 326.5 9 Q289 -11 235 -11 Q144 -11 97 43 Q57 90 57 172 L57 530 L195 530 L195 201 Q195 106 283 106 Q337 106 367 138 Q393 166 393 210 L393 530 L531 530 L531 0 Z "/>
<glyph glyph-name="ucircumflex" unicode="û" horiz-adv-x="600" d="M240 743 L346 743 L447 596 L370 596 L290 694 L210 596 L135 596 L240 743 Z M531 0 L393 0 L393 75 Q364 29 326.5 9 Q289 -11 235 -11 Q144 -11 97 43 Q57 90 57 172 L57 530 L195 530 L195 201 Q195 106 283 106 Q337 106 367 138 Q393 166 393 210 L393 530 L531 530 L531 0 Z "/>
<glyph glyph-name="udieresis" unicode="ü" horiz-adv-x="600" d="M253 729 L253 609 L145 609 L145 729 L253 729 Z M436 729 L436 609 L328 609 L328 729 L436 729 Z M531 0 L393 0 L393 75 Q364 29 326.5 9 Q289 -11 235 -11 Q144 -11 97 43 Q57 90 57 172 L57 530 L195 530 L195 201 Q195 106 283 106 Q337 106 367 138 Q393 166 393 210 L393 530 L531 530 L531 0 Z "/>
<glyph glyph-name="degree" unicode="°" horiz-adv-x="392" d="M42 528 Q42 592 87 637 Q133 683 197 683 Q262 683 306 637 Q351 592 351 528 Q351 464 306 419 Q263 374 197 374 Q132 374 87 419 Q42 464 42 528 Z M119 528 Q119 494 142 468 Q164 443 197 443 Q229 443 251 468 Q274 494 274 528 Q274 564 251 590 Q228 615 197 615 Q165 615 142 590 Q119 564 119 528 Z "/>
<glyph glyph-name="cent" unicode="¢" horiz-adv-x="567" d="M348 683 L348 607 Q380 607 417 597 Q447 591 470 580 L436 487 Q415 496 388 504 Q363 511 337 511 Q277 511 248 475 Q217 436 217 344 Q217 247 255 209 Q284 182 336 181 Q365 181 402 188 Q438 196 470 207 L470 157 L421 96 Q391 86 348 83 L348 -9 L272 -9 L272 86 Q186 97 141 157 Q92 218 92 342 Q92 468 141 532 Q187 592 272 603 L272 683 L348 683 Z "/>
<glyph glyph-name="sterling" unicode="£" horiz-adv-x="653" d="M367 685 Q410 685 438 677.5 Q466 670 503 649 L503 555 Q434 586 376 586 Q341 586 321 567 Q298 544 298 495 L298 379 L458 379 L458 290 L298 290 L298 223 Q298 158 280 123 Q322 130 369 130 Q478 130 561 96 L561 52 L519 0 Q428 28 327 28 Q224 28 92 0 L92 98 Q131 113 155 140 Q178 169 178 222 L178 290 L93 290 L93 379 L178 379 L178 500 Q178 592 231 640 Q280 685 367 685 Z "/>
<glyph glyph-name="section" unicode="§" horiz-adv-x="546" d="M464 540 L340 540 Q330 616 263 616 Q234 616 217 602.5 Q200 589 200 566 Q200 545 217.5 528 Q235 511 288 482 L413 413 Q508 360 508 263 Q508 214 486.5 182.5 Q465 151 416 128 Q485 79 485 -4 Q485 -94 418 -147 Q360 -192 270 -192 Q65 -192 64 6 L192 6 L192 -4 Q194 -45 211 -62 Q232 -83 272 -83 Q305 -83 326 -66 Q347 -49 347 -22 Q347 14 305 38 L109 152 Q32 197 32 282 Q32 324 50 354.5 Q68 385 113 419 L123 426 L110 438 Q62 485 62 547 Q62 626 127 674 Q184 716 267 716 Q329 716 376 693 Q417 674 438 641 Q461 605 464 540 Z M190 380 Q149 357 149 318 Q149 294 160 279.5 Q171 265 201 248 L345 170 Q370 188 380 202.5 Q390 217 390 235 Q390 257 377 272.5 Q364 288 330 306 L190 380 Z "/>
<glyph glyph-name="bullet" unicode="•" horiz-adv-x="488" d="M243 318 Q301 318 340 275 Q373 238 373 188 Q373 130 330 91 Q293 58 243 58 Q186 58 148 101 Q115 138 115 188 Q115 246 158 285 Q194 318 243 318 Z "/>
<glyph glyph-name="paragraph" unicode="¶" horiz-adv-x="546" d="M520 716 L520 645 L477 645 L477 -187 L381 -187 L381 645 L320 645 L320 -187 L224 -187 L224 263 Q127 267 70 337 Q20 398 20 486 Q20 570 70 638 Q127 716 223 716 L520 716 Z "/>
<glyph glyph-name="germandbls" unicode="ß" horiz-adv-x="596" d="M276 348 L276 442 L289 442 Q333 442 358 469 Q380 493 380 530 Q380 573 351 597 Q327 617 286 617 Q243 617 220 592 Q200 570 200 533 L200 0 L62 0 L62 514 Q62 627 123 677 Q151 700 198 714 Q245 728 295 728 Q400 728 463 670 Q518 619 518 543 Q518 442 433 410 Q499 396 532 347 Q561 304 561 239 Q561 117 495 49 Q437 -11 346 -11 Q317 -11 276 -5 L276 105 L288 105 Q323 106 342.5 111 Q362 116 379 130 Q423 165 423 227 Q423 288 382 320 Q347 349 290 349 Q285 349 276 348 Z "/>
<glyph glyph-name="registered" unicode="®" horiz-adv-x="784" d="M392 683 Q484 683 567 636 Q644 591 691 511 Q738 431 738 336 Q738 242 691 162 Q646 85 567 38 Q487 -9 392 -9 Q298 -9 218 38 Q138 84 93 162 Q46 242 46 336 Q46 431 93 511 Q140 591 218 636 Q301 683 392 683 Z M392 622 Q273 622 190 539 Q106 453 106 336 Q106 220 190 134 Q275 51 392 51 Q510 51 595 134 Q678 219 678 336 Q678 454 595 539 Q512 622 392 622 Z M241 539 L403 539 Q471 539 511 493 Q545 455 545 401 Q545 331 481 299 L552 164 L513 133 L472 133 L396 280 L334 280 L334 133 L241 133 L241 539 Z M391 468 L334 468 L334 351 L393 351 Q421 351 441 369 Q456 386 456 407 Q456 433 444 448 Q429 468 391 468 Z "/>
<glyph glyph-name="copyright" unicode="©" horiz-adv-x="784" d="M392 683 Q484 683 567 636 Q644 591 691 511 Q738 431 738 336 Q738 242 691 162 Q646 85 567 38 Q487 -9 392 -9 Q298 -9 218 38 Q138 84 93 162 Q46 242 46 336 Q46 431 93 511 Q140 591 218 636 Q301 683 392 683 Z M392 622 Q273 622 190 539 Q106 453 106 336 Q106 220 190 134 Q275 51 392 51 Q510 51 595 134 Q678 219 678 336 Q678 454 595 539 Q512 622 392 622 Z M407 550 Q471 550 539 516 L507 446 Q459 471 411 471 Q367 471 341 441 Q310 405 310 336 Q310 258 344 225 Q368 201 411 201 Q435 201 461 207 Q496 214 520 226 L520 186 L475 131 Q453 122 409 122 Q315 122 264 181 Q215 239 215 337 Q215 433 264 491 Q315 550 407 550 Z "/>
<glyph glyph-name="trademark" unicode="™" horiz-adv-x="701" d="M267 673 L267 611 L176 611 L176 370 L139 341 L105 341 L105 611 L14 611 L14 673 L267 673 Z M655 673 L655 370 L618 341 L583 341 L583 588 L582 588 L499 341 L440 341 L361 588 L360 588 L360 341 L291 341 L291 673 L396 673 L472 432 L553 673 L655 673 Z "/>
<glyph glyph-name="acute" unicode="´" horiz-adv-x="491" d="M393 743 L270 596 L201 596 L270 743 L393 743 Z "/>
<glyph glyph-name="dieresis" unicode="¨" horiz-adv-x="491" d="M208 727 L208 607 L100 607 L100 727 L208 727 Z M390 727 L390 607 L282 607 L282 727 L390 727 Z "/>
<glyph glyph-name="AE" unicode="Æ" horiz-adv-x="982" d="M422 149 L203 149 L151 0 L1 0 L259 716 L929 716 L929 594 L569 594 L569 431 L902 431 L902 308 L569 308 L569 123 L948 123 L948 0 L422 0 L422 149 Z M422 272 L422 593 L357 593 L244 272 L422 272 Z "/>
<glyph glyph-name="Oslash" unicode="Ø" horiz-adv-x="768" d="M117 107 Q78 156 56.5 222 Q35 288 35 358 Q35 442 65 517 Q91 582 135 630 Q226 727 380 727 Q517 727 606 647 L686 736 L737 691 L651 597 Q724 494 724 358 Q724 273 694 199 Q669 134 624 86 Q533 -11 379 -11 Q252 -11 164 59 L76 -39 L26 7 L117 107 Z M214 214 L514 546 Q463 601 380 601 Q284 601 229 526 Q182 461 182 359 Q182 276 214 214 Z M552 487 L256 160 Q306 115 380 115 Q475 115 530 190 Q577 255 577 357 Q577 432 552 487 Z "/>
<glyph glyph-name="plusminus" unicode="±" horiz-adv-x="573" d="M518 101 L518 -16 L55 -16 L55 101 L518 101 Z M518 424 L518 307 L345 307 L345 135 L228 135 L228 307 L55 307 L55 424 L228 424 L228 597 L345 597 L345 424 L518 424 Z "/>
<glyph glyph-name="lessequal" unicode="≤" horiz-adv-x="518" d="M476 603 L476 504 L167 351 L476 216 L476 117 L42 317 L42 377 L476 603 Z M476 91 L476 0 L42 0 L42 91 L476 91 Z "/>
<glyph glyph-name="greaterequal" unicode="≥" horiz-adv-x="517" d="M42 603 L476 377 L476 317 L42 117 L42 216 L351 351 L42 504 L42 603 Z M476 91 L476 0 L42 0 L42 91 L476 91 Z "/>
<glyph glyph-name="yen" unicode="¥" horiz-adv-x="528" d="M500 673 L347 326 L443 326 L443 250 L322 250 L322 184 L443 184 L443 108 L322 108 L322 47 L263 0 L207 0 L207 108 L84 108 L84 184 L207 184 L207 250 L84 250 L84 326 L179 326 L28 673 L142 673 L264 375 L387 673 L500 673 Z "/>
<glyph glyph-name="mu" unicode="µ" horiz-adv-x="597" d="M200 -214 L69 -214 L69 530 L207 530 L207 214 Q207 106 290 106 Q336 106 364 139 Q388 167 388 210 L388 530 L526 530 L526 159 Q526 115 532 101 Q538 87 556 87 Q564 87 575 91 L575 6 Q545 -11 506 -11 Q471 -11 450.5 0.5 Q430 12 413 42 Q384 12 358.5 0.5 Q333 -11 299 -11 Q241 -11 200 26 L200 -214 Z "/>
<glyph glyph-name="ordfeminine" unicode="ª" horiz-adv-x="367" d="M318 334 L318 257 L40 257 L40 334 L318 334 Z M326 403 L326 393 L236 393 Q227 405 227 425 Q184 380 130 380 Q83 380 57 410 Q34 436 34 476 Q34 560 127 576 L160 581 Q201 588 212 594 Q226 602 226 618 Q226 649 178 649 Q149 649 136 639 Q123 629 120 605 L43 605 Q45 716 176 716 Q307 716 307 617 L307 442 Q307 420 326 403 Z M226 542 Q215 537 192 532 L163 527 Q137 522 126.5 512 Q116 502 116 484 Q116 446 161 446 Q192 446 209 465.5 Q226 485 226 520 L226 542 Z "/>
<glyph glyph-name="ordmasculine" unicode="º" horiz-adv-x="360" d="M328 334 L328 257 L33 257 L33 334 L328 334 Z M180 716 Q259 716 300 665 Q337 621 337 547 Q337 463 290 418 Q248 379 180 379 Q102 379 60 430 Q23 474 23 547 Q23 631 70 677 Q112 716 180 716 Z M180 649 Q146 649 125.5 621 Q105 593 105 547 Q105 499 128 470 Q149 446 180 446 Q214 446 234.5 474 Q255 502 255 547 Q255 596 232 624 Q211 649 180 649 Z "/>
<glyph glyph-name="ae" unicode="æ" horiz-adv-x="878" d="M397 82 Q346 27 305.5 7.5 Q265 -12 203 -12 Q113 -12 67 33 Q27 73 27 141 Q27 253 130 293 Q153 302 172.5 306 Q192 310 283 325 Q319 331 334 343 Q349 355 349 377 Q349 431 269 431 Q218 431 197.5 415.5 Q177 400 173 358 L40 358 Q53 541 267 541 Q383 541 440 491 Q505 541 595 541 Q681 541 744 495 Q799 455 823 389 Q844 333 844 255 Q844 246 843 229 L487 229 Q490 165 507 138 Q536 94 598 94 Q675 94 701 158 L837 158 Q812 75 739 29 Q675 -11 592 -11 Q469 -11 397 82 Z M349 253 Q330 244 291 237 L244 227 Q202 219 186 204 Q165 185 165 157 Q165 130 185 114.5 Q205 99 239 99 Q295 99 324 134 Q349 165 349 217 L349 253 Z M700 320 Q690 436 593 436 Q502 436 488 320 L700 320 Z "/>
<glyph glyph-name="oslash" unicode="ø" horiz-adv-x="599" d="M88 83 Q35 153 35 265 Q35 402 114 476 Q184 541 297 541 Q409 541 477 479 L543 546 L585 507 L515 436 Q560 367 560 264 Q560 127 481 53 Q412 -11 298 -11 Q196 -11 128 42 L56 -32 L14 8 L88 83 Z M186 183 L386 387 Q352 430 297 430 Q238 430 203 378 Q173 334 173 265 Q173 221 186 183 Z M413 332 L217 132 Q253 100 298 100 Q358 100 392 151 Q422 196 422 264 Q422 302 413 332 Z "/>
<glyph glyph-name="questiondown" unicode="¿" horiz-adv-x="600" d="M234 333 L356 333 L356 310 Q355 260 332.5 221 Q310 182 258 139 Q214 104 201 83 Q188 62 188 29 Q188 -23 221 -56 Q250 -84 292 -84 Q341 -84 372 -44 Q400 -9 400 40 L400 58 L534 58 Q533 -2 522.5 -41.5 Q512 -81 488 -113 Q423 -200 295 -200 Q179 -200 110 -129 Q50 -67 50 26 Q50 88 75 127.5 Q100 167 169 216 Q215 249 224.5 266 Q234 283 234 333 Z M219 387 L219 530 L366 530 L366 387 L219 387 Z "/>
<glyph glyph-name="exclamdown" unicode="¡" horiz-adv-x="327" d="M65 -183 L65 23 L106 327 L172 327 L212 23 L212 -183 L65 -183 Z M65 387 L65 530 L212 530 L212 387 L65 387 Z "/>
<glyph glyph-name="logicalnot" unicode="¬" horiz-adv-x="573" d="M39 368 L534 368 L534 84 L458 84 L458 292 L39 292 L39 368 Z "/>
<glyph glyph-name="florin" unicode="ƒ" horiz-adv-x="327" d="M227 428 L227 -173 Q227 -238 177 -274 Q134 -306 67 -306 Q40 -306 4 -299 L4 -180 Q21 -181 34 -181 Q59 -181 74 -169 Q89 -157 89 -138 L89 428 L14 428 L14 519 L89 519 L89 583 Q89 716 223 716 Q255 716 303 713 L303 610 Q283 613 264 613 Q227 613 227 571 L227 519 L308 519 L308 428 L227 428 Z "/>
<glyph glyph-name="guillemotleft" unicode="«" horiz-adv-x="509" d="M218 475 L264 437 L153 267 L264 96 L218 58 L175 58 L37 261 L37 272 L175 475 L218 475 Z M426 475 L472 437 L362 267 L472 96 L426 58 L383 58 L245 261 L245 272 L383 475 L426 475 Z "/>
<glyph glyph-name="guillemotright" unicode="»" horiz-adv-x="514" d="M83 475 L127 475 L264 272 L264 261 L127 58 L83 58 L37 96 L148 267 L37 437 L83 475 Z M296 475 L339 475 L477 272 L477 261 L339 58 L296 58 L250 96 L361 267 L250 437 L296 475 Z "/>
<glyph glyph-name="ellipsis" unicode="…" horiz-adv-x="644" d="M140 125 Q167 125 185.5 106.5 Q204 88 204 61 Q204 34 185.5 15.5 Q167 -3 140 -3 Q113 -3 94.5 15.5 Q76 34 76 61 Q76 88 94.5 106.5 Q113 125 140 125 Z M324 125 Q351 125 369.5 106.5 Q388 88 388 61 Q388 34 369.5 15.5 Q351 -3 324 -3 Q297 -3 278.5 15.5 Q260 34 260 61 Q260 88 278.5 106.5 Q297 125 324 125 Z M508 125 Q535 125 553.5 106.5 Q572 88 572 61 Q572 34 553.5 15.5 Q535 -3 508 -3 Q481 -3 462.5 15.5 Q444 34 444 61 Q444 88 462.5 106.5 Q481 125 508 125 Z "/>
<glyph glyph-name="Agrave" unicode="À" horiz-adv-x="709" d="M492 144 L224 144 L176 0 L26 0 L280 716 L443 716 L691 0 L539 0 L492 144 Z M452 267 L359 547 L265 267 L452 267 Z M218 919 L341 919 L410 772 L341 772 L218 919 Z "/>
<glyph glyph-name="Atilde" unicode="Ã" horiz-adv-x="709" d="M492 144 L224 144 L176 0 L26 0 L280 716 L443 716 L691 0 L539 0 L492 144 Z M452 267 L359 547 L265 267 L452 267 Z M537 911 Q530 785 445 785 Q423 785 390 797 L320 823 Q302 830 289 830 Q258 830 251 785 L190 785 Q192 847 220 879 Q244 907 282 907 Q303 907 337 895 L407 870 Q424 863 441 863 Q469 863 476 911 L537 911 Z "/>
<glyph glyph-name="Otilde" unicode="Õ" horiz-adv-x="768" d="M379 727 Q530 727 623 630 Q673 577 700 499 Q723 431 723 358 Q723 274 693 199 Q667 134 623 86 Q532 -11 379 -11 Q225 -11 134 86 Q83 141 57 217 Q34 284 34 358 Q34 442 64 517 Q90 583 134 630 Q226 727 379 727 Z M379 601 Q283 601 228 526 Q181 461 181 358 Q181 240 242 173 Q295 115 379 115 Q475 115 529 190 Q576 255 576 358 Q576 476 515 543 Q462 601 379 601 Z M559 911 Q552 785 469 785 Q445 785 412 797 L342 823 Q324 830 311 830 Q280 830 273 785 L211 785 Q214 847 242 879 Q265 907 304 907 Q324 907 358 895 L429 870 Q446 863 462 863 Q491 863 497 911 L559 911 Z "/>
<glyph glyph-name="endash" unicode="–" horiz-adv-x="470" d="M433 294 L433 191 L37 191 L37 294 L433 294 Z "/>
<glyph glyph-name="emdash" unicode="—" horiz-adv-x="941" d="M904 294 L904 191 L37 191 L37 294 L904 294 Z "/>
<glyph glyph-name="quotedblleft" unicode="“" horiz-adv-x="416" d="M155 716 L179 696 Q154 661 146 642 Q135 622 131 604 Q145 603 155 597 Q166 592 175 579 Q186 564 186 540 Q186 522 176 504 Q158 476 123 476 Q100 476 83 490 Q59 507 54 544 Q53 550 53 557 Q53 595 74 640 Q92 680 124 716 L155 716 Z M336 716 L360 696 Q335 661 327 642 Q316 622 312 604 Q325 603 335 597 Q347 591 354 581 Q367 565 367 541 Q367 522 357 504 Q337 476 304 476 Q279 476 264 490 Q240 507 235 544 Q234 550 234 557 Q234 595 255 640 Q273 680 305 716 L336 716 Z "/>
<glyph glyph-name="quotedblright" unicode="”" horiz-adv-x="416" d="M116 716 Q139 716 156 702 Q181 683 184 648 Q185 642 185 635 Q185 596 164 552 Q147 514 115 476 L83 476 L59 496 Q79 524 93 551 Q102 570 108 588 Q82 591 65 611 Q52 629 52 651 Q52 671 63 688 Q81 716 116 716 Z M296 716 Q321 716 336 702 Q360 685 365 648 Q366 642 366 636 Q366 599 345 552 Q327 512 295 476 L264 476 L240 496 Q262 526 273 551 Q283 568 289 588 Q260 591 244 613 Q233 630 233 651 Q233 670 243 688 Q263 716 296 716 Z "/>
<glyph glyph-name="quoteleft" unicode="‘" horiz-adv-x="235" d="M154 716 L178 696 Q153 661 145 642 Q134 622 130 604 Q159 601 174 579 Q185 564 185 540 Q185 522 175 504 Q157 476 122 476 Q99 476 82 490 Q58 507 53 544 Q52 550 52 557 Q52 595 73 640 Q91 680 123 716 L154 716 Z "/>
<glyph glyph-name="quoteright" unicode="’" horiz-adv-x="235" d="M116 716 Q139 716 156 702 Q181 683 184 648 Q185 642 185 635 Q185 596 164 552 Q147 514 115 476 L83 476 L59 496 Q79 524 93 551 Q102 570 108 588 Q82 591 65 611 Q52 629 52 651 Q52 671 63 688 Q81 716 116 716 Z "/>
<glyph glyph-name="divide" unicode="÷" horiz-adv-x="517" d="M259 473 Q286 473 304.5 454.5 Q323 436 323 409 Q323 382 304.5 363 Q286 344 259 344 Q232 344 213 363 Q194 382 194 409 Q194 436 213 454.5 Q232 473 259 473 Z M476 282 L476 191 L42 191 L42 282 L476 282 Z M259 129 Q286 129 304.5 110 Q323 91 323 64 Q323 37 304.5 18.5 Q286 0 259 0 Q232 0 213 19 Q194 38 194 64 Q194 91 213 110 Q232 129 259 129 Z "/>
<glyph glyph-name="ydieresis" unicode="ÿ" horiz-adv-x="546" d="M228 729 L228 609 L120 609 L120 729 L228 729 Z M411 729 L411 609 L303 609 L303 729 L411 729 Z M387 530 L528 530 L310 -96 Q294 -143 277.5 -164 Q261 -185 233 -197 Q193 -214 134 -214 Q111 -214 85 -210 L85 -107 Q106 -112 121 -112 Q158 -112 184 -86 Q206 -63 206 -33 L206 -22 L9 530 L160 530 L278 144 L387 530 Z "/>
<glyph glyph-name="fraction" unicode="⁄" horiz-adv-x="549" d="M517 673 L121 0 L23 0 L419 673 L517 673 Z "/>
<glyph glyph-name="currency" unicode="¤" horiz-adv-x="535" d="M88 333 Q88 380 114 426 L55 485 L115 545 L174 486 Q217 513 267 513 Q318 513 360 486 L419 545 L480 486 L420 427 Q447 384 447 333 Q447 281 420 239 L478 181 L419 122 L360 180 Q316 154 267 154 Q212 154 173 180 L115 122 L56 182 L114 240 Q88 281 88 333 Z M173 333 Q173 293 200 266 Q228 238 267 238 Q306 238 336 266 Q364 294 364 333 Q364 371 336 401 Q306 429 267 429 Q228 429 200 401 Q173 372 173 333 Z "/>
<glyph glyph-name="guilsinglleft" unicode="‹" horiz-adv-x="301" d="M218 475 L264 437 L153 267 L264 96 L218 58 L175 58 L37 261 L37 272 L175 475 L218 475 Z "/>
<glyph glyph-name="guilsinglright" unicode="›" horiz-adv-x="301" d="M83 475 L127 475 L264 272 L264 261 L127 58 L83 58 L37 96 L148 267 L37 437 L83 475 Z "/>
<glyph glyph-name="periodcentered" unicode="·" horiz-adv-x="273" d="M63 287 L185 287 L185 166 L63 166 L63 287 Z "/>
<glyph glyph-name="quotesinglbase" unicode="‚" horiz-adv-x="235" d="M116 133 Q140 133 156 120 Q181 101 184 66 Q185 60 185 53 Q185 13 164 -30 Q147 -68 115 -106 L83 -106 L59 -86 Q78 -60 93 -32 Q103 -11 108 6 Q82 9 65 29 Q52 47 52 69 Q52 89 63 105 Q81 133 116 133 Z "/>
<glyph glyph-name="quotedblbase" unicode="„" horiz-adv-x="416" d="M116 133 Q140 133 156 120 Q181 101 184 66 Q185 60 185 53 Q185 13 164 -30 Q147 -68 115 -106 L83 -106 L59 -86 Q78 -60 93 -32 Q103 -11 108 6 Q82 9 65 29 Q52 47 52 69 Q52 89 63 105 Q81 133 116 133 Z M296 133 Q322 133 336 120 Q360 103 365 66 Q366 60 366 54 Q366 15 345 -30 Q327 -70 295 -106 L264 -106 L240 -86 Q261 -58 273 -32 Q283 -13 289 6 Q260 9 244 31 Q233 47 233 70 Q233 88 243 105 Q263 133 296 133 Z "/>
<glyph glyph-name="Acircumflex" unicode="Â" horiz-adv-x="709" d="M492 144 L224 144 L176 0 L26 0 L280 716 L443 716 L691 0 L539 0 L492 144 Z M452 267 L359 547 L265 267 L452 267 Z M308 919 L413 919 L514 772 L438 772 L358 870 L277 772 L202 772 L308 919 Z "/>
<glyph glyph-name="Ecircumflex" unicode="Ê" horiz-adv-x="653" d="M222 308 L222 123 L610 123 L610 0 L75 0 L75 716 L592 716 L592 593 L222 593 L222 431 L565 431 L565 308 L222 308 Z M285 919 L391 919 L492 772 L416 772 L335 870 L255 772 L180 772 L285 919 Z "/>
<glyph glyph-name="Aacute" unicode="Á" horiz-adv-x="709" d="M492 144 L224 144 L176 0 L26 0 L280 716 L443 716 L691 0 L539 0 L492 144 Z M452 267 L359 547 L265 267 L452 267 Z M501 919 L377 772 L309 772 L377 919 L501 919 Z "/>
<glyph glyph-name="Edieresis" unicode="Ë" horiz-adv-x="653" d="M222 308 L222 123 L610 123 L610 0 L75 0 L75 716 L592 716 L592 593 L222 593 L222 431 L565 431 L565 308 L222 308 Z M299 905 L299 785 L191 785 L191 905 L299 905 Z M481 905 L481 785 L373 785 L373 905 L481 905 Z "/>
<glyph glyph-name="Egrave" unicode="È" horiz-adv-x="653" d="M222 308 L222 123 L610 123 L610 0 L75 0 L75 716 L592 716 L592 593 L222 593 L222 431 L565 431 L565 308 L222 308 Z M202 919 L326 919 L394 772 L326 772 L202 919 Z "/>
<glyph glyph-name="Iacute" unicode="Í" horiz-adv-x="294" d="M222 716 L222 0 L75 0 L75 716 L222 716 Z M308 919 L186 772 L118 772 L185 919 L308 919 Z "/>
<glyph glyph-name="Icircumflex" unicode="Î" horiz-adv-x="294" d="M222 716 L222 0 L75 0 L75 716 L222 716 Z M102 919 L207 919 L308 772 L232 772 L152 870 L71 772 L-4 772 L102 919 Z "/>
<glyph glyph-name="Idieresis" unicode="Ï" horiz-adv-x="294" d="M222 716 L222 0 L75 0 L75 716 L222 716 Z M112 905 L112 785 L4 785 L4 905 L112 905 Z M294 905 L294 785 L186 785 L186 905 L294 905 Z "/>
<glyph glyph-name="Igrave" unicode="Ì" horiz-adv-x="294" d="M222 716 L222 0 L75 0 L75 716 L222 716 Z M3 919 L127 919 L195 772 L127 772 L3 919 Z "/>
<glyph glyph-name="Oacute" unicode="Ó" horiz-adv-x="768" d="M515 919 L391 772 L322 772 L391 919 L515 919 Z M379 727 Q530 727 623 630 Q673 577 700 499 Q723 431 723 358 Q723 274 693 199 Q667 134 623 86 Q532 -11 379 -11 Q225 -11 134 86 Q83 141 57 217 Q34 284 34 358 Q34 442 64 517 Q90 583 134 630 Q226 727 379 727 Z M379 601 Q283 601 228 526 Q181 461 181 358 Q181 240 242 173 Q295 115 379 115 Q475 115 529 190 Q576 255 576 358 Q576 476 515 543 Q462 601 379 601 Z "/>
<glyph glyph-name="Ocircumflex" unicode="Ô" horiz-adv-x="768" d="M328 919 L434 919 L535 772 L458 772 L378 870 L297 772 L223 772 L328 919 Z M379 727 Q530 727 623 630 Q673 577 700 499 Q723 431 723 358 Q723 274 693 199 Q667 134 623 86 Q532 -11 379 -11 Q225 -11 134 86 Q83 141 57 217 Q34 284 34 358 Q34 442 64 517 Q90 583 134 630 Q226 727 379 727 Z M379 601 Q283 601 228 526 Q181 461 181 358 Q181 240 242 173 Q295 115 379 115 Q475 115 529 190 Q576 255 576 358 Q576 476 515 543 Q462 601 379 601 Z "/>
<glyph glyph-name="Ograve" unicode="Ò" horiz-adv-x="768" d="M244 919 L368 919 L437 772 L368 772 L244 919 Z M379 727 Q530 727 623 630 Q673 577 700 499 Q723 431 723 358 Q723 274 693 199 Q667 134 623 86 Q532 -11 379 -11 Q225 -11 134 86 Q83 141 57 217 Q34 284 34 358 Q34 442 64 517 Q90 583 134 630 Q226 727 379 727 Z M379 601 Q283 601 228 526 Q181 461 181 358 Q181 240 242 173 Q295 115 379 115 Q475 115 529 190 Q576 255 576 358 Q576 476 515 543 Q462 601 379 601 Z "/>
<glyph glyph-name="Uacute" unicode="Ú" horiz-adv-x="714" d="M495 919 L371 772 L302 772 L371 919 L495 919 Z M496 716 L643 716 L643 242 Q643 125 574 62 Q493 -11 359 -11 Q225 -11 144 62 Q75 125 75 242 L75 716 L222 716 L222 242 Q222 115 359 115 Q496 115 496 242 L496 716 Z "/>
<glyph glyph-name="Ucircumflex" unicode="Û" horiz-adv-x="714" d="M308 919 L414 919 L515 772 L438 772 L358 870 L278 772 L203 772 L308 919 Z M496 716 L643 716 L643 242 Q643 125 574 62 Q493 -11 359 -11 Q225 -11 144 62 Q75 125 75 242 L75 716 L222 716 L222 242 Q222 115 359 115 Q496 115 496 242 L496 716 Z "/>
<glyph glyph-name="Ugrave" unicode="Ù" horiz-adv-x="714" d="M225 919 L348 919 L417 772 L348 772 L225 919 Z M496 716 L643 716 L643 242 Q643 125 574 62 Q493 -11 359 -11 Q225 -11 144 62 Q75 125 75 242 L75 716 L222 716 L222 242 Q222 115 359 115 Q496 115 496 242 L496 716 Z "/>
<glyph glyph-name="overscore" unicode="¯" horiz-adv-x="495" d="M495 823 L495 745 L0 745 L0 823 L495 823 Z "/>
<glyph glyph-name="cedilla" unicode="¸" horiz-adv-x="491" d="M240 0 L282 0 L253 -61 Q274 -55 295 -55 Q329 -55 349 -73.5 Q369 -92 369 -125 Q369 -172 332 -195 Q300 -216 243 -216 Q210 -216 182 -210.5 Q154 -205 107 -188 L126 -137 Q195 -167 228 -167 Q251 -167 267.5 -155.5 Q284 -144 284 -126 Q284 -111 270.5 -101.5 Q257 -92 234 -92 Q211 -92 186 -104 L240 0 Z "/>
<glyph glyph-name="brokenbar" unicode="¦" horiz-adv-x="213" d="M69 412 L69 688 L144 688 L144 412 L69 412 Z M144 304 L144 28 L69 28 L69 304 L144 304 Z "/>
<glyph glyph-name="Eth" unicode="Ð" horiz-adv-x="709" d="M76 332 L0 332 L0 411 L76 411 L76 716 L356 716 Q440 716 493.5 696.5 Q547 677 582 633 Q623 582 646 509.5 Q669 437 669 357 Q669 273 643 197 Q621 130 582 83 Q547 39 493 19.5 Q439 0 356 0 L76 0 L76 332 Z M223 332 L223 123 L355 123 Q403 123 433 135.5 Q463 148 483 176 Q528 240 528 357 Q528 475 483 540 Q463 568 433 580.5 Q403 593 355 593 L223 593 L223 411 L370 411 L370 332 L223 332 Z "/>
<glyph glyph-name="eth" unicode="ð" horiz-adv-x="598" d="M348 514 Q308 571 259 600 L184 554 L142 591 L211 634 Q179 653 122 681 L188 728 Q224 714 273 687 Q274 686 288 679 L374 730 L423 697 L341 648 Q459 569 512 468 Q558 380 558 270 Q558 129 479 54 Q410 -11 296 -11 Q166 -11 95 74 Q34 147 34 268 Q34 427 145 494 Q204 530 268 530 Q299 530 348 514 Z M296 427 Q237 427 203 376 Q173 332 173 264 Q173 185 211 139 Q245 100 296 100 Q355 100 389 151 Q419 195 419 264 Q419 342 381 388 Q347 427 296 427 Z "/>
<glyph glyph-name="Yacute" unicode="Ý" horiz-adv-x="643" d="M403 265 L403 0 L256 0 L256 265 L18 716 L182 716 L328 400 L465 716 L629 716 L403 265 Z M467 919 L343 772 L275 772 L343 919 L467 919 Z "/>
<glyph glyph-name="yacute" unicode="ý" horiz-adv-x="546" d="M399 743 L275 596 L206 596 L275 743 L399 743 Z M387 530 L528 530 L310 -96 Q294 -143 277.5 -164 Q261 -185 233 -197 Q193 -214 134 -214 Q111 -214 85 -210 L85 -107 Q106 -112 121 -112 Q158 -112 184 -86 Q206 -63 206 -33 L206 -22 L9 530 L160 530 L278 144 L387 530 Z "/>
<glyph glyph-name="Thorn" unicode="Þ" horiz-adv-x="656" d="M222 138 L222 0 L75 0 L75 716 L222 716 L222 598 L390 598 Q505 598 561 543 Q622 483 622 375 Q622 258 556 194 Q499 138 405 138 L222 138 Z M222 261 L359 261 Q475 261 475 368 Q475 426 443 452 Q415 475 359 475 L222 475 L222 261 Z "/>
<glyph glyph-name="thorn" unicode="þ" horiz-adv-x="607" d="M202 716 L202 454 Q251 541 349 541 Q397 541 442 518 Q487 495 514 458 Q541 421 556 368.5 Q571 316 571 261 Q571 134 500 56 Q439 -11 350 -11 Q251 -11 202 64 L202 -214 L64 -214 L64 716 L202 716 Z M318 426 Q262 426 230 376 Q202 332 202 264 Q202 187 238 143 Q269 104 318 104 Q373 104 405 154 Q433 197 433 264 Q433 341 397 387 Q365 426 318 426 Z "/>
<glyph glyph-name="minus" unicode="−" horiz-adv-x="526" d="M480 191 L46 191 L46 282 L480 282 L480 191 Z "/>
<glyph glyph-name="multiply" unicode="×" horiz-adv-x="439" d="M345 420 L407 358 L281 233 L404 110 L342 48 L219 170 L97 48 L35 110 L157 233 L32 358 L94 420 L219 295 L345 420 Z "/>
<glyph glyph-name="onesuperior" unicode="¹" horiz-adv-x="345" d="M145 562 L40 562 L40 623 Q99 622 131 639.5 Q163 657 175 696 L238 696 L238 279 L145 279 L145 562 Z "/>
<glyph glyph-name="twosuperior" unicode="²" horiz-adv-x="345" d="M320 359 L320 279 L16 279 Q19 342 38.5 373.5 Q58 405 118 445 Q191 494 210 515 Q229 536 229 570 Q229 599 213.5 615.5 Q198 632 170 632 Q142 632 126.5 614 Q111 596 111 564 Q111 560 111 547 L21 547 Q21 561 21 565 Q21 637 66 673 Q105 705 174 705 Q250 705 288 666 Q322 633 322 573 Q322 529 301.5 499.5 Q281 470 222 430 Q176 398 164 388.5 Q152 379 137 359 L320 359 Z "/>
<glyph glyph-name="threesuperior" unicode="³" horiz-adv-x="345" d="M132 462 L132 523 Q140 523 145 523 Q216 523 216 579 Q216 603 202 617.5 Q188 632 165 632 Q134 632 121.5 616 Q109 600 108 560 L21 560 Q25 625 50 657 Q88 705 167 705 Q236 705 275 669 Q309 638 309 589 Q309 535 259 503 Q323 471 323 401 Q323 335 275 298 Q233 266 167 266 Q90 266 50 308 Q15 345 16 406 L106 406 Q109 342 169 342 Q196 342 213 358.5 Q230 375 230 400 Q230 462 146 462 Q138 462 132 462 Z "/>
<glyph glyph-name="onehalf" unicode="½" horiz-adv-x="804" d="M234 673 L234 302 L186 263 L139 263 L139 565 L61 508 L16 566 L154 673 L234 673 Z M628 673 L231 0 L134 0 L530 673 L628 673 Z M670 412 Q742 401 762 340 Q769 321 769 301 Q769 289 766 275 Q756 231 711 186 Q693 167 631 108 L603 81 L781 81 L781 43 L743 0 L488 0 L489 75 L540 120 Q608 181 629 203 Q663 240 670 256 Q679 272 679 287 Q679 291 678 296 Q677 319 662 329 Q647 341 623 341 Q600 339 554 312 L509 369 Q555 399 600 410 Q621 414 641 414 Q656 414 670 412 Z "/>
<glyph glyph-name="onequarter" unicode="¼" horiz-adv-x="762" d="M234 673 L234 302 L186 263 L139 263 L139 565 L61 508 L16 566 L154 673 L234 673 Z M619 673 L222 0 L125 0 L521 673 L619 673 Z M698 407 L698 147 L746 147 L746 77 L698 77 L698 31 L655 0 L603 0 L603 77 L413 77 L413 135 L610 407 L698 407 Z M603 298 L494 147 L603 147 L603 298 Z "/>
<glyph glyph-name="threequarters" unicode="¾" horiz-adv-x="801" d="M114 685 L123 685 Q147 685 172 679 Q215 668 238 642 Q259 618 264 581 Q264 577 264 575 Q264 547 251 525 Q229 489 183 481 Q229 475 256 445 Q283 416 283 381 Q283 359 274 339 Q262 310 234 291 Q195 264 128 264 Q125 264 120 264 Q73 264 45 273 L16 308 L16 341 Q66 326 97 326 Q146 326 169 345 Q187 357 187 383 Q187 410 163 429 Q129 454 68 454 L68 511 L115 511 Q139 511 155 524 Q173 540 173 562 Q173 564 173 566 Q173 587 159 598 Q145 612 125 615 Q112 617 100 617 Q81 617 40 607 L40 669 Q86 684 114 685 Z M660 673 L264 0 L166 0 L562 673 L660 673 Z M736 407 L736 147 L785 147 L785 77 L736 77 L736 31 L694 0 L642 0 L642 77 L451 77 L451 135 L648 407 L736 407 Z M642 298 L532 147 L642 147 L642 298 Z "/>
<glyph glyph-name="nbspace" unicode=" " horiz-adv-x="273" d=""/>
<glyph glyph-name="uni00AD" unicode="­" horiz-adv-x="327" d="M293 335 L293 203 L26 203 L26 335 L293 335 Z "/>
<glyph glyph-name="uni02C9" unicode="ˉ" horiz-adv-x="491" d="M391 706 L391 628 L98 628 L98 706 L391 706 Z "/>
<glyph glyph-name="anoteleia" unicode="·" horiz-adv-x="273" d="M63 287 L185 287 L185 166 L63 166 L63 287 Z "/>
<glyph glyph-name="uni060C" unicode="،" horiz-adv-x="272" d="M141 -5 Q118 -5 101 9 Q77 26 72 64 Q71 70 71 76 Q71 114 92 159 Q110 199 142 235 L173 235 L197 215 Q175 185 164 161 Q153 141 149 123 Q176 120 191 100 Q204 84 204 60 Q204 40 194 23 Q176 -5 141 -5 Z "/>
<glyph glyph-name="uni0615" unicode="ؕ" d="M90 814 L90 708 Q110 735 141 753 Q168 767 194 770 Q201 771 207 771 Q243 771 268 751 Q298 727 298 678 L298 639 Q298 617 283 600 Q266 583 242 583 L0 583 L0 636 L27 636 L27 814 L90 814 Z M201 722 Q174 722 143 699 Q112 675 91 636 L227 636 Q239 636 239 649 L239 680 Q239 703 227 712 Q217 722 201 722 Z "/>
<glyph glyph-name="uni061B" unicode="؛" horiz-adv-x="272" d="M140 190 Q118 190 100 203 Q75 221 71 258 Q70 264 70 270 Q70 307 91 354 Q109 395 141 429 L172 429 L196 410 Q173 377 163 355 Q152 335 148 318 Q176 314 190 295 Q203 279 203 255 Q203 234 193 218 Q175 190 140 190 Z M140 122 Q167 122 185.5 103 Q204 84 204 57 Q204 30 185.5 11 Q167 -8 140 -8 Q113 -8 94 11 Q75 30 75 57 Q75 84 94 103 Q113 122 140 122 Z "/>
<glyph glyph-name="uni061F" unicode="؟" horiz-adv-x="414" d="M205 720 Q212 721 219 721 Q273 721 314 690 Q365 652 381 568 L297 537 Q289 584 264 606 Q250 618 228 618 Q218 618 209 616 Q189 611 175.5 598.5 Q162 586 160 571 Q160 568 160 565 Q160 544 172.5 524.5 Q185 505 219 471 Q280 414 300 370 Q317 332 317 278 Q317 256 315 226 L263 184 L222 184 Q224 219 224 239 Q224 299 203 334 Q184 363 129 412 Q89 444 73 467 Q45 505 41 551 Q40 560 40 568 Q40 632 86 675 Q135 717 205 720 Z M271 124 Q298 124 317 105.5 Q336 87 336 60 Q336 33 317 14 Q298 -5 271 -5 Q244 -5 225.5 14 Q207 33 207 60 Q207 87 225.5 105.5 Q244 124 271 124 Z "/>
<glyph glyph-name="uni0621" unicode="ء" horiz-adv-x="519" d="M272 460 Q289 462 304 462 Q341 462 392 451 L392 354 Q351 362 325 362 Q309 362 293 359 Q242 352 221 317 Q202 287 202 232 Q202 181 228 146 Q257 110 317 110 Q323 110 329 110 Q384 118 428 121 Q447 123 470 123 Q484 123 498 122 L498 81 L448 19 Q376 16 293 -6 Q198 -33 112 -91 L55 -1 Q94 26 162 58 Q136 75 115 109 Q80 167 80 240 Q80 341 139 401 Q185 451 272 460 Z "/>
<glyph glyph-name="uni0622" unicode="آ" horiz-adv-x="260" d="M63 890 Q87 891 115 879 L154 860 Q177 850 193 850 Q209 850 222 860 Q231 867 243 882 L277 856 Q258 828 237 812 Q212 793 182 793 Q165 793 142 800 Q128 804 106 816 Q78 830 65 830 Q42 830 8 797 L-24 822 Q11 888 63 890 Z M192 716 L192 25 L130 -25 L70 -25 L70 716 L192 716 Z "/>
<glyph glyph-name="uni0623" unicode="أ" horiz-adv-x="260" d="M127 996 Q134 997 141 997 Q169 997 197 988 L197 935 Q172 942 159 942 Q152 942 147 941 Q131 938 124 925 Q116 914 116 893 Q116 873 126 862 Q138 845 162 845 L229 845 L229 820 L206 792 L29 792 L29 845 L69 845 Q52 871 52 903 Q52 934 66 957 Q86 989 127 996 Z M191 716 L191 25 L129 -25 L69 -25 L69 716 L191 716 Z "/>
<glyph glyph-name="uni0624" unicode="ؤ" horiz-adv-x="545" d="M283 745 Q292 746 301 746 Q327 746 352 737 L352 685 Q330 691 314 691 Q308 691 303 690 Q289 687 280 674 Q272 661 272 643 Q272 625 282 611 Q294 595 318 595 L385 595 L385 570 L362 541 L185 541 L185 595 L224 595 Q208 621 208 652 Q208 684 222 707 Q244 740 283 745 Z M288 472 Q368 472 422 431 Q490 382 490 287 L490 24 Q490 -105 408 -174 Q361 -214 291 -230 Q256 -238 213 -238 Q202 -238 178 -236 L129 -175 L129 -132 Q161 -137 192 -137 Q203 -137 214 -136 Q291 -129 327 -92 Q360 -59 366 4 Q323 -8 282 -8 Q271 -8 259 -7 Q163 3 106 79 Q56 145 56 237 Q56 340 117 404 Q180 472 288 472 Z M288 370 Q231 370 202 328 Q177 293 177 235 Q177 175 207 137 Q234 102 278 97 Q289 95 302 95 Q333 95 368 107 L368 287 Q368 330 339 353 Q319 370 288 370 Z "/>
<glyph glyph-name="uni0625" unicode="إ" horiz-adv-x="232" d="M191 716 L191 25 L129 -25 L69 -25 L69 716 L191 716 Z M109 -97 Q118 -95 128 -95 Q151 -95 179 -104 L179 -157 Q159 -151 142 -151 Q135 -151 129 -152 Q113 -155 106 -168 Q98 -179 98 -199 Q98 -219 108 -231 Q120 -247 144 -247 L211 -247 L211 -272 L188 -301 L11 -301 L11 -247 L51 -247 Q34 -222 34 -190 Q34 -158 48 -135 Q69 -102 109 -97 Z "/>
<glyph glyph-name="uni0626" unicode="ئ" horiz-adv-x="803" d="M552 472 Q615 473 678 454 L678 362 Q616 377 574 376 Q519 374 487 343 Q462 321 460 276 Q460 271 460 267 Q460 233 478 210 Q489 196 509.5 185 Q530 174 578 157 Q642 134 671 116.5 Q700 99 718 75 Q756 23 756 -35 Q756 -47 755 -59 Q745 -145 668 -194 Q596 -239 479 -239 L380 -239 Q263 -239 189 -182 Q96 -112 96 24 L96 125 L158 174 L218 174 L218 35 Q218 -39 249 -79 Q278 -121 346 -132 Q376 -138 442 -138 Q499 -138 526 -132 Q575 -123 599 -107 Q631 -86 637 -49 Q637 -44 637 -38 Q637 -4 617 19 Q595 41 521 65 Q463 83 436 98 Q391 124 368 164 Q342 205 342 267 Q342 273 342 279 Q346 372 402 423 Q456 470 552 472 Z M167 471 Q175 472 183 472 Q207 472 237 463 L237 411 Q215 416 201 416 Q193 416 187 415 Q171 411 164 400 Q156 388 156 369 Q156 348 166 337 Q178 320 202 320 L269 320 L269 296 L246 267 L69 267 L69 320 L109 320 Q92 346 92 378 Q92 408 106 433 Q126 464 167 471 Z "/>
<glyph glyph-name="uni0627" unicode="ا" horiz-adv-x="260" d="M191 716 L191 25 L129 -25 L69 -25 L69 716 L191 716 Z "/>
<glyph glyph-name="uni0628" unicode="ب" horiz-adv-x="981" d="M912 460 L912 110 Q912 68 886 39 Q854 0 804 0 L244 0 Q179 0 132 42 Q69 95 69 180 L69 338 L131 388 L191 388 L191 180 Q191 145 215 123 Q238 102 268 102 L765 102 Q790 102 790 127 L790 460 L912 460 Z M491 -73 Q518 -73 537 -92 Q556 -111 556 -138 Q556 -165 537 -184 Q518 -203 491 -203 Q464 -203 445 -184 Q426 -165 426 -138 Q426 -111 445 -92 Q464 -73 491 -73 Z "/>
<glyph glyph-name="uni0629" unicode="ة" horiz-adv-x="544" d="M272 680 Q299 680 317.5 661 Q336 642 336 615 Q336 588 317.5 569.5 Q299 551 272 551 Q245 551 226 570 Q207 589 207 615 Q207 642 226 661 Q245 680 272 680 Z M424 680 Q451 680 470 661 Q489 642 489 615 Q489 589 470 570 Q451 551 424 551 Q397 551 378 570 Q359 589 359 615 Q359 642 378 661 Q397 680 424 680 Z M489 487 L489 175 Q489 89 430 38 Q375 -9 279 -9 Q173 -9 113 59 Q55 120 55 224 Q55 345 134 416 Q197 474 283 476 Q337 478 386 453 L428 487 L489 487 Z M290 372 Q246 369 215 337 Q176 297 176 224 Q176 160 205 125 Q233 93 280 93 Q324 93 346 117 Q367 141 367 176 L367 358 Q332 372 301 372 L290 372 Z "/>
<glyph glyph-name="uni062A" unicode="ت" horiz-adv-x="981" d="M415 487 Q442 487 461 468 Q480 449 480 422 Q480 395 461 376 Q442 357 415 357 Q389 357 370 376 Q351 395 351 422 Q351 449 370 468 Q389 487 415 487 Z M568 487 Q594 487 613 468 Q632 449 632 422 Q632 395 613 376 Q594 357 568 357 Q541 357 522 376 Q503 395 503 422 Q503 449 522 468 Q541 487 568 487 Z M912 460 L912 110 Q912 68 886 39 Q854 0 804 0 L244 0 Q179 0 132 42 Q69 95 69 180 L69 338 L131 388 L191 388 L191 180 Q191 145 215 123 Q238 102 268 102 L765 102 Q790 102 790 127 L790 460 L912 460 Z "/>
<glyph glyph-name="uni062B" unicode="ث" horiz-adv-x="981" d="M491 607 Q516 607 533 589.5 Q550 572 550 547 Q550 522 533 504.5 Q516 487 491 487 Q466 487 448.5 504.5 Q431 522 431 547 Q431 572 448.5 589.5 Q466 607 491 607 Z M415 487 Q442 487 461 468 Q480 449 480 422 Q480 395 461 376 Q442 357 415 357 Q388 357 369.5 376 Q351 395 351 422 Q351 449 369.5 468 Q388 487 415 487 Z M567 487 Q593 487 612 468 Q631 449 631 422 Q631 395 612 376 Q593 357 567 357 Q540 357 521 376 Q502 395 502 422 Q502 449 521 468 Q540 487 567 487 Z M912 460 L912 110 Q912 68 886 39 Q854 0 804 0 L244 0 Q179 0 132 42 Q69 95 69 180 L69 338 L131 388 L191 388 L191 180 Q191 145 215 123 Q238 102 268 102 L765 102 Q790 102 790 127 L790 460 L912 460 Z "/>
<glyph glyph-name="uni062C" unicode="ج" horiz-adv-x="662" d="M358 472 Q470 468 539 398 Q607 328 607 224 L607 110 Q607 64 575 32 Q543 0 499 0 L317 0 Q230 0 196 -57 Q177 -86 177 -130 Q177 -202 227 -239 Q270 -272 346 -275 Q357 -276 370 -276 Q426 -276 487 -259 L487 -301 L436 -364 Q397 -376 339 -378 Q228 -378 154 -326 Q55 -259 55 -126 Q55 -34 105 21 Q176 102 330 102 L460 102 Q485 102 485 127 L485 217 Q485 280 446 321 Q406 364 335 367 Q326 367 320 367 Q271 367 186 346 L186 443 Q278 472 347 472 L358 472 Z M360 -73 Q387 -73 406 -92 Q425 -111 425 -138 Q425 -165 406 -184 Q387 -203 360 -203 Q333 -203 314 -184 Q295 -165 295 -138 Q295 -111 314 -92 Q333 -73 360 -73 Z "/>
<glyph glyph-name="uni062D" unicode="ح" horiz-adv-x="685" d="M356 472 L367 472 Q484 472 555 404 Q630 334 630 224 L630 110 Q630 64 598 32 Q566 0 522 0 L317 0 Q230 0 196 -57 Q177 -86 177 -130 Q177 -202 227 -239 Q270 -272 346 -275 Q357 -276 370 -276 Q426 -276 487 -259 L487 -302 L435 -366 Q403 -376 342 -378 Q228 -378 154 -326 Q55 -259 55 -126 Q55 -34 105 21 Q176 102 330 102 L483 102 Q508 102 508 127 L508 217 Q508 277 471 319 Q428 365 350 368 Q299 369 195 346 L195 443 Q284 471 356 472 Z "/>
<glyph glyph-name="uni062E" unicode="خ" horiz-adv-x="685" d="M359 680 Q386 680 405 661 Q424 642 424 615 Q424 589 405 570 Q386 551 359 551 Q333 551 314 570 Q295 589 295 615 Q295 642 314 661 Q333 680 359 680 Z M356 472 L367 472 Q484 472 555 404 Q630 334 630 224 L630 110 Q630 64 598 32 Q566 0 522 0 L317 0 Q230 0 196 -57 Q177 -86 177 -130 Q177 -202 227 -239 Q270 -272 346 -275 Q357 -276 370 -276 Q426 -276 487 -259 L487 -302 L435 -366 Q403 -376 342 -378 Q228 -378 154 -326 Q55 -259 55 -126 Q55 -34 105 21 Q176 102 330 102 L483 102 Q508 102 508 127 L508 217 Q508 277 471 319 Q428 365 350 368 Q299 369 195 346 L195 443 Q284 471 356 472 Z "/>
<glyph glyph-name="uni062F" unicode="د" horiz-adv-x="528" d="M232 472 Q333 467 398 406 Q468 339 468 232 L468 110 Q468 63 434 31 Q403 0 360 0 L39 0 L39 102 L321 102 Q332 102 339 109 Q346 116 346 127 L346 220 Q346 289 304 331 Q265 370 191 373 Q157 373 140 369 L140 466 Q174 472 219 472 L232 472 Z "/>
<glyph glyph-name="uni0630" unicode="ذ" horiz-adv-x="528" d="M207 680 Q233 680 252 661 Q271 642 271 615 Q271 589 252 570 Q233 551 207 551 Q180 551 161 570 Q142 589 142 615 Q142 642 161 661 Q180 680 207 680 Z M232 472 Q333 467 398 406 Q468 339 468 232 L468 110 Q468 63 434 31 Q403 0 360 0 L39 0 L39 102 L321 102 Q332 102 339 109 Q346 116 346 127 L346 220 Q346 289 304 331 Q265 370 191 373 Q157 373 140 369 L140 466 Q174 472 219 472 L232 472 Z "/>
<glyph glyph-name="uni0631" unicode="ر" horiz-adv-x="418" d="M349 460 L349 24 Q349 -100 273 -168 Q224 -213 147 -231 Q111 -238 72 -238 Q59 -238 37 -236 L-12 -175 L-12 -132 Q20 -137 50 -137 Q62 -137 72 -136 Q151 -128 189 -89 Q227 -48 227 35 L227 460 L349 460 Z "/>
<glyph glyph-name="uni0632" unicode="ز" horiz-adv-x="422" d="M288 680 Q315 680 334 661 Q353 642 353 615 Q353 589 334 570 Q315 551 288 551 Q261 551 242.5 569.5 Q224 588 224 615 Q224 642 242.5 661 Q261 680 288 680 Z M349 460 L349 24 Q349 -102 270 -171 Q220 -216 140 -232 Q111 -238 72 -238 Q59 -238 37 -236 L-12 -175 L-12 -132 Q20 -137 50 -137 Q62 -137 72 -136 Q150 -130 188 -90 Q227 -50 227 35 L227 460 L349 460 Z "/>
<glyph glyph-name="uni0633" unicode="س" horiz-adv-x="1474" d="M1405 460 L1405 110 Q1405 61 1369 28 Q1338 0 1297 0 L1087 0 L1049 41 L1046 41 Q1013 0 962 0 L735 0 Q726 -120 643 -182 Q569 -239 452 -239 L353 -239 Q218 -239 140 -164 Q69 -94 69 24 L69 203 L131 253 L191 253 L191 35 Q191 -48 231 -91 Q262 -123 319 -133 Q343 -137 402 -137 Q461 -137 486 -133 Q536 -125 567 -97 Q614 -56 614 35 L614 345 L736 345 L736 102 L923 102 Q948 102 948 127 L948 403 L1070 403 L1070 135 Q1070 113 1069 102 L1258 102 Q1283 102 1283 127 L1283 460 L1405 460 Z "/>
<glyph glyph-name="uni0634" unicode="ش" horiz-adv-x="1474" d="M1011 800 Q1035 800 1052.5 782.5 Q1070 765 1070 740 Q1070 716 1052.5 698.5 Q1035 681 1011 681 Q986 681 968.5 698 Q951 715 951 740 Q951 765 968.5 782.5 Q986 800 1011 800 Z M935 680 Q962 680 980.5 661 Q999 642 999 615 Q999 588 980.5 569.5 Q962 551 935 551 Q908 551 889 570 Q870 589 870 615 Q870 642 889 661 Q908 680 935 680 Z M1086 680 Q1113 680 1132 661 Q1151 642 1151 615 Q1151 589 1132 570 Q1113 551 1086 551 Q1060 551 1041 570 Q1022 589 1022 615 Q1022 642 1041 661 Q1060 680 1086 680 Z M1405 460 L1405 110 Q1405 61 1369 28 Q1338 0 1297 0 L1087 0 L1049 41 L1046 41 Q1013 0 962 0 L735 0 Q726 -120 643 -182 Q569 -239 452 -239 L353 -239 Q218 -239 140 -164 Q69 -94 69 24 L69 203 L131 253 L191 253 L191 35 Q191 -48 231 -91 Q262 -123 319 -133 Q343 -137 402 -137 Q461 -137 486 -133 Q536 -125 567 -97 Q614 -56 614 35 L614 345 L736 345 L736 102 L923 102 Q948 102 948 127 L948 403 L1070 403 L1070 135 Q1070 113 1069 102 L1258 102 Q1283 102 1283 127 L1283 460 L1405 460 Z "/>
<glyph glyph-name="uni0635" unicode="ص" horiz-adv-x="1390" d="M1090 472 Q1185 467 1251 409 Q1335 338 1335 226 L1335 110 Q1335 63 1301 31 Q1268 0 1227 0 L735 0 Q727 -123 637 -186 Q564 -239 452 -239 L353 -239 Q210 -239 134 -157 Q69 -90 69 24 L69 203 L131 253 L191 253 L191 35 Q191 -45 227 -87 Q259 -123 319 -133 Q343 -137 403 -137 Q462 -137 486 -133 Q541 -123 569 -96 Q614 -52 614 35 L614 460 L736 460 L735 292 Q803 384 884 428 Q969 473 1066 473 Q1078 473 1090 472 Z M1047 368 Q970 368 899 319 Q798 250 735 102 L1188 102 Q1199 102 1206 109 Q1213 116 1213 127 L1213 220 Q1213 280 1172 321 Q1123 368 1047 368 Z "/>
<glyph glyph-name="uni0636" unicode="ض" horiz-adv-x="1390" d="M1001 680 Q1028 680 1047 661 Q1066 642 1066 615 Q1066 589 1047 570 Q1028 551 1001 551 Q975 551 956 570 Q937 589 937 615 Q937 642 956 661 Q975 680 1001 680 Z M1090 472 Q1185 467 1251 409 Q1335 338 1335 226 L1335 110 Q1335 63 1301 31 Q1268 0 1227 0 L735 0 Q727 -123 637 -186 Q564 -239 452 -239 L353 -239 Q210 -239 134 -157 Q69 -90 69 24 L69 203 L131 253 L191 253 L191 35 Q191 -45 227 -87 Q259 -123 319 -133 Q343 -137 403 -137 Q462 -137 486 -133 Q541 -123 569 -96 Q614 -52 614 35 L614 460 L736 460 L735 292 Q803 384 884 428 Q969 473 1066 473 Q1078 473 1090 472 Z M1047 368 Q970 368 899 319 Q798 250 735 102 L1188 102 Q1199 102 1206 109 Q1213 116 1213 127 L1213 220 Q1213 280 1172 321 Q1123 368 1047 368 Z "/>
<glyph glyph-name="uni0637" unicode="ط" horiz-adv-x="971" d="M317 716 L317 292 Q382 380 468 428 Q553 473 649 473 Q661 473 672 472 Q756 468 817 422 Q867 385 893 329 Q916 280 916 226 L916 110 Q916 64 883 31 Q852 0 808 0 L106 0 L56 62 L56 102 L195 102 L195 716 L317 716 Z M629 368 Q553 368 484 321 Q383 252 316 102 L769 102 Q794 102 794 127 L794 220 Q794 294 739 334 Q693 368 629 368 Z "/>
<glyph glyph-name="uni0638" unicode="ظ" horiz-adv-x="971" d="M317 716 L317 292 Q382 380 468 428 Q553 473 649 473 Q661 473 672 472 Q756 468 817 422 Q867 385 893 329 Q916 280 916 226 L916 110 Q916 64 883 31 Q852 0 808 0 L106 0 L56 62 L56 102 L195 102 L195 716 L317 716 Z M582 680 Q609 680 628 661 Q647 642 647 615 Q647 589 628 570 Q609 551 582 551 Q556 551 537 570 Q518 589 518 615 Q518 642 537 661 Q556 680 582 680 Z M629 368 Q553 368 484 321 Q383 252 316 102 L769 102 Q794 102 794 127 L794 220 Q794 294 739 334 Q693 368 629 368 Z "/>
<glyph glyph-name="uni0639" unicode="ع" horiz-adv-x="580" d="M345 472 Q400 472 457 455 L457 359 Q398 371 360 371 Q357 371 352 371 Q291 371 260 339 Q224 307 222 243 Q222 239 222 237 Q222 191 243 158 Q276 102 345 102 L539 102 L539 62 L490 0 L318 0 Q228 -4 197 -57 Q178 -86 178 -130 Q178 -202 228 -239 Q271 -272 347 -275 Q358 -276 371 -276 Q427 -276 488 -259 L488 -301 L435 -366 Q402 -376 343 -378 Q229 -378 155 -326 Q56 -259 56 -126 Q56 -34 106 21 Q134 52 173 70 Q135 109 120 148 Q100 191 100 247 Q100 353 173 415 Q238 474 345 472 Z "/>
<glyph glyph-name="uni063A" unicode="غ" horiz-adv-x="580" d="M328 680 Q355 680 374 661 Q393 642 393 615 Q393 589 374 570 Q355 551 328 551 Q302 551 283 570 Q264 589 264 615 Q264 642 283 661 Q302 680 328 680 Z M345 472 Q400 472 457 455 L457 359 Q398 371 360 371 Q357 371 352 371 Q291 371 260 339 Q224 307 222 243 Q222 239 222 237 Q222 191 243 158 Q276 102 345 102 L539 102 L539 62 L490 0 L318 0 Q228 -4 197 -57 Q178 -86 178 -130 Q178 -202 228 -239 Q271 -272 347 -275 Q358 -276 371 -276 Q427 -276 488 -259 L488 -301 L435 -366 Q402 -376 343 -378 Q229 -378 155 -326 Q56 -259 56 -126 Q56 -34 106 21 Q134 52 173 70 Q135 109 120 148 Q100 191 100 247 Q100 353 173 415 Q238 474 345 472 Z "/>
<glyph glyph-name="uni0640" unicode="ـ" horiz-adv-x="178" d="M182 102 L182 0 L-3 0 L-3 102 L182 102 Z "/>
<glyph glyph-name="uni0641" unicode="ف" horiz-adv-x="1014" d="M759 680 Q786 680 805 661 Q824 642 824 615 Q824 589 805 570 Q786 551 759 551 Q732 551 713 570 Q694 589 694 615 Q694 642 713 661 Q732 680 759 680 Z M759 472 Q832 472 884 436 Q959 387 959 287 L959 109 Q959 62 925 30 Q892 0 851 0 L245 0 Q179 0 129 45 Q70 97 70 180 L70 338 L132 388 L192 388 L192 180 Q192 148 214 126 Q235 102 269 102 L571 102 Q524 165 524 247 Q524 356 600 419 Q664 472 759 472 Z M758 370 Q701 370 670 329 Q645 294 645 238 Q645 174 683 137 Q718 102 776 102 L812 102 Q837 102 837 127 L837 287 Q837 327 812 350 Q791 370 758 370 Z "/>
<glyph glyph-name="uni0642" unicode="ق" horiz-adv-x="791" d="M458 680 Q485 680 504 661 Q523 642 523 615 Q523 589 504 570 Q485 551 458 551 Q432 551 413 570 Q394 589 394 615 Q394 642 413 661 Q432 680 458 680 Z M611 680 Q638 680 656.5 661 Q675 642 675 615 Q675 588 656.5 569.5 Q638 551 611 551 Q584 551 565 570 Q546 589 546 615 Q546 642 565 661 Q584 680 611 680 Z M534 472 Q611 472 662 435 Q736 385 736 287 L736 24 Q736 -100 656 -169 Q580 -239 452 -239 L353 -239 Q223 -239 147 -170 Q69 -102 69 24 L69 135 L131 185 L191 185 L191 35 Q191 -43 226 -85 Q258 -120 319 -132 Q343 -136 402 -136 Q461 -136 486 -132 Q530 -124 559 -104 Q604 -70 611 4 Q571 -7 532 -7 Q508 -7 486 -3 Q421 8 377 50 Q341 85 321 134.5 Q301 184 301 237 Q301 348 373 413 Q435 472 534 472 Z M533 370 Q483 370 453 335 Q422 299 422 235 Q422 165 461 127 Q486 101 527 96 Q537 95 547 95 Q579 95 614 107 L614 287 Q614 323 591 348 Q567 370 533 370 Z "/>
<glyph glyph-name="uni0643" unicode="ك" horiz-adv-x="981" d="M912 716 L912 110 Q912 62 877 29 Q845 0 804 0 L244 0 Q170 0 121 52 Q69 104 69 180 L69 338 L131 388 L191 388 L191 180 Q191 147 214 124 Q236 102 268 102 L765 102 Q778 102 784 110 Q790 116 790 127 L790 716 L912 716 Z M514 589 Q521 589 530 589 Q559 589 583 583 L583 526 Q562 531 542 531 Q532 531 522 529 Q498 526 486 511 Q472 496 470 464 Q470 436 482 415 Q499 388 537 388 L637 388 L637 362 L608 326 L343 326 L343 388 L417 388 Q406 406 399 430 Q394 447 394 468 Q396 515 419 545 Q449 584 514 589 Z "/>
<glyph glyph-name="uni0644" unicode="ل" horiz-adv-x="805" d="M736 716 L736 24 Q736 -95 664 -164 Q588 -239 452 -239 L353 -239 Q222 -239 146 -170 Q69 -101 69 24 L69 203 L131 253 L191 253 L191 35 Q191 -54 237 -97 Q268 -125 319 -133 Q343 -137 403 -137 Q462 -137 486 -133 Q541 -123 570 -95 Q614 -54 614 35 L614 716 L736 716 Z "/>
<glyph glyph-name="uni0645" unicode="م" horiz-adv-x="621" d="M364 472 Q467 472 522 409 Q566 362 566 287 L566 110 Q566 59 528 27 Q498 0 458 0 L202 0 Q191 0 184 -7 Q177 -14 177 -25 L177 -324 L115 -373 L55 -373 L55 -8 Q55 40 90 74 Q120 102 158 102 L174 102 Q132 161 132 244 Q133 353 206 416 Q269 471 364 472 Z M363 370 Q306 370 276 324 Q253 288 253 237 Q253 173 287 136 Q318 102 371 102 L419 102 Q444 102 444 127 L444 287 Q444 328 417 350 Q395 370 363 370 Z "/>
<glyph glyph-name="uni0646" unicode="ن" horiz-adv-x="805" d="M396 472 Q423 472 442 453 Q461 434 461 407 Q461 380 442 361 Q423 342 396 342 Q370 342 351 361 Q332 380 332 407 Q332 434 351 453 Q370 472 396 472 Z M736 460 L736 24 Q736 -100 659 -169 Q582 -239 452 -239 L353 -239 Q215 -239 138 -162 Q69 -93 69 24 L69 203 L131 253 L191 253 L191 35 Q191 -37 221 -78 Q251 -121 319 -133 Q343 -137 403 -137 Q462 -137 486 -133 Q548 -121 579 -84 Q614 -44 614 35 L614 460 L736 460 Z "/>
<glyph glyph-name="uni0647" unicode="ه" horiz-adv-x="544" d="M489 487 L489 175 Q489 89 430 38 Q375 -9 279 -9 Q173 -9 113 59 Q55 120 55 224 Q55 345 134 416 Q197 474 283 476 Q337 478 386 453 L428 487 L489 487 Z M290 372 Q246 369 215 337 Q176 297 176 224 Q176 160 205 125 Q233 93 280 93 Q324 93 346 117 Q367 141 367 176 L367 358 Q332 372 301 372 L290 372 Z "/>
<glyph glyph-name="uni0648" unicode="و" horiz-adv-x="545" d="M288 472 Q368 472 422 431 Q490 382 490 287 L490 24 Q490 -105 408 -174 Q361 -214 291 -230 Q256 -238 213 -238 Q202 -238 178 -236 L129 -175 L129 -132 Q161 -137 192 -137 Q203 -137 214 -136 Q291 -129 327 -92 Q360 -59 366 4 Q323 -8 282 -8 Q271 -8 259 -7 Q163 3 106 79 Q56 145 56 237 Q56 340 117 404 Q180 472 288 472 Z M288 370 Q231 370 202 328 Q177 293 177 235 Q177 175 207 137 Q234 102 278 97 Q289 95 302 95 Q333 95 368 107 L368 287 Q368 330 339 353 Q319 370 288 370 Z "/>
<glyph glyph-name="uni0649" unicode="ى" horiz-adv-x="776" d="M525 472 Q588 473 650 454 L650 362 Q591 377 547 376 Q492 374 460 343 Q435 319 433 276 Q433 271 433 267 Q433 233 451 210 Q462 196 482.5 185 Q503 174 552 157 Q615 134 644.5 116.5 Q674 99 691 75 Q730 25 730 -34 Q730 -47 728 -59 Q719 -145 641 -194 Q570 -239 452 -239 L353 -239 Q236 -239 162 -182 Q69 -112 69 24 L69 125 L131 174 L191 174 L191 35 Q191 -38 221 -79 Q252 -121 319 -132 Q349 -138 416 -138 Q473 -138 499 -132 Q547 -123 572 -107 Q606 -84 609 -49 Q610 -42 610 -35 Q610 -3 590 19 Q569 41 495 65 Q437 83 409 98 Q364 124 341 164 Q315 207 315 268 Q315 274 315 279 Q320 374 375 423 Q429 470 525 472 Z "/>
<glyph glyph-name="uni064A" unicode="ي" horiz-adv-x="776" d="M525 472 Q588 473 650 454 L650 362 Q591 377 547 376 Q492 374 460 343 Q435 319 433 276 Q433 271 433 267 Q433 233 451 210 Q462 196 482.5 185 Q503 174 552 157 Q615 134 644.5 116.5 Q674 99 691 75 Q730 25 730 -34 Q730 -47 728 -59 Q719 -145 641 -194 Q570 -239 452 -239 L353 -239 Q236 -239 162 -182 Q69 -112 69 24 L69 125 L131 174 L191 174 L191 35 Q191 -38 221 -79 Q252 -121 319 -132 Q349 -138 416 -138 Q473 -138 499 -132 Q547 -123 572 -107 Q606 -84 609 -49 Q610 -42 610 -35 Q610 -3 590 19 Q569 41 495 65 Q437 83 409 98 Q364 124 341 164 Q315 207 315 268 Q315 274 315 279 Q320 374 375 423 Q429 470 525 472 Z M323 -297 Q350 -297 369 -316 Q388 -335 388 -362 Q388 -389 369 -408 Q350 -427 323 -427 Q296 -427 277 -408 Q258 -389 258 -362 Q258 -335 277 -316 Q296 -297 323 -297 Z M475 -297 Q502 -297 521 -316 Q540 -335 540 -362 Q540 -389 521 -408 Q502 -427 475 -427 Q449 -427 430 -408 Q411 -389 411 -362 Q411 -335 430 -316 Q449 -297 475 -297 Z "/>
<glyph glyph-name="uni064B" unicode="ً" d="M225 692 L19 635 L0 658 L0 683 L225 745 L225 692 Z M225 591 L19 533 L0 557 L0 581 L225 643 L225 591 Z "/>
<glyph glyph-name="uni064C" unicode="ٌ" d="M271 743 Q300 742 319.5 723 Q339 704 342 674 Q343 668 343 661 Q343 635 330 612 Q318 592 295 574 Q253 546 205 546 Q201 546 197 546 Q138 548 95 592 L46 548 L22 548 L0 568 L105 660 Q122 631 149 613 Q176 595 203 595 Q210 595 217 597 Q185 621 185 663 Q185 666 185 669 Q188 704 211.5 724 Q235 744 271 743 Z M265 699 Q250 700 241.5 690.5 Q233 681 233 664 Q233 648 242 635.5 Q251 623 265 618 Q293 634 295 661 Q295 699 265 699 Z "/>
<glyph glyph-name="uni064D" unicode="ٍ" d="M225 -154 L19 -211 L0 -188 L0 -163 L225 -101 L225 -154 Z M225 -255 L19 -312 L0 -289 L0 -265 L225 -202 L225 -255 Z "/>
<glyph glyph-name="uni064E" unicode="َ" d="M225 624 L19 566 L0 590 L0 614 L225 676 L225 624 Z "/>
<glyph glyph-name="uni064F" unicode="ُ" d="M162 744 Q201 743 221 713 Q235 691 235 666 Q237 589 136 561 L19 528 L0 552 L0 576 L102 604 Q76 629 76 663 L76 670 Q79 703 101 723.5 Q123 744 156 744 Q159 744 162 744 Z M157 701 Q125 701 125 666 Q125 629 157 620 Q186 636 186 662 Q186 699 157 701 Z "/>
<glyph glyph-name="uni0650" unicode="ِ" d="M225 -178 L19 -235 L0 -212 L0 -187 L225 -125 L225 -178 Z "/>
<glyph glyph-name="uni0651" unicode="ّ" d="M273 701 L273 583 Q273 564 261 550 Q248 534 225 534 L171 534 L155 551 L154 551 Q151 546 142 540 Q132 534 118 534 L49 534 Q26 534 12 550 Q0 565 0 583 L0 655 L27 677 L54 677 L54 588 Q54 584 57 581 Q59 578 64 578 L98 578 Q103 578 106 581 Q110 584 110 589 L110 677 L164 677 L164 578 L209 578 Q213 578 216 581 Q219 583 219 588 L219 701 L273 701 Z "/>
<glyph glyph-name="uni0652" unicode="ْ" d="M80 691 Q113 691 137 666 Q159 643 159 610 Q159 576 137.5 555.5 Q116 535 80 535 Q44 535 22 555.5 Q0 576 0 610 Q0 648 28 672 Q51 691 80 691 Z M80 577 Q94 577 103 587 Q112 597 112 612 Q112 627 102.5 637.5 Q93 648 80 648 Q66 648 56 637.5 Q46 627 47 612 Q47 597 56 587 Q65 577 80 577 Z "/>
<glyph glyph-name="uni0653" unicode="ٓ" d="M109 672 Q133 673 161 661 L200 642 Q223 632 239 632 Q255 632 268 642 Q281 653 289 665 L323 638 Q304 610 283 594 Q258 575 228 575 Q210 575 188 582 Q174 587 152 598 Q123 613 110 613 Q88 613 53 579 L22 604 Q57 670 109 672 Z "/>
<glyph glyph-name="uni0654" unicode="ٔ" d="M97 780 Q105 781 113 781 Q138 781 166 772 L166 720 Q146 725 131 725 Q123 725 117 724 Q102 721 93 709 Q86 698 86 678 Q86 659 95 646 Q109 629 132 629 L199 629 L199 605 L176 576 L-1 576 L-1 629 L38 629 Q22 656 22 687 Q22 721 35 742 Q57 774 97 780 Z "/>
<glyph glyph-name="uni0655" unicode="ٕ" d="M99 -74 Q107 -73 115 -73 Q139 -73 167 -82 L167 -134 Q146 -128 131 -128 Q125 -128 120 -129 Q104 -132 94 -145 Q86 -158 86 -176 Q86 -194 96 -208 Q110 -225 133 -225 L200 -225 L200 -249 L176 -278 L0 -278 L0 -225 L39 -225 Q23 -197 23 -168 Q23 -134 36 -112 Q58 -79 99 -74 Z "/>
<glyph glyph-name="uni0656" unicode="ٖ" d="M0 -71 L54 -71 L54 -258 L27 -280 L0 -280 L0 -71 Z "/>
<glyph glyph-name="uni0657" unicode="ٗ" d="M89 500 Q65 500 50 514 Q26 531 21 568 Q20 574 20 581 Q20 621 41 664 Q59 704 91 740 L122 740 L146 720 Q125 691 113 666 Q103 647 97 628 Q125 625 140 605 Q153 589 153 565 Q153 545 142 528 Q124 500 89 500 Z "/>
<glyph glyph-name="uni0658" unicode="٘" d="M54 676 L54 580 Q54 538 114 538 Q140 538 156 549.5 Q172 561 172 579 L172 732 L226 732 L226 577 Q226 533 193 511 Q164 491 114 491 Q0 491 0 580 L0 654 L27 676 L54 676 Z "/>
<glyph glyph-name="uni0660" unicode="٠" horiz-adv-x="305" d="M158 363 L261 261 L261 213 L160 110 L32 236 L158 363 Z "/>
<glyph glyph-name="uni0661" unicode="١" horiz-adv-x="306" d="M214 674 L214 50 L152 0 L92 0 L92 674 L214 674 Z "/>
<glyph glyph-name="uni0662" unicode="٢" horiz-adv-x="547" d="M308 686 L320 686 Q408 686 478 654 L478 553 Q409 578 352 578 Q301 578 268 558 Q214 529 214 451 L214 50 L152 0 L92 0 L92 460 Q92 556 137 614 Q173 660 241 678 Q273 686 308 686 Z "/>
<glyph glyph-name="uni0663" unicode="٣" horiz-adv-x="761" d="M214 674 L214 424 Q247 414 281 414 Q327 414 343 430 Q357 445 357 481 L357 674 L461 674 L461 477 Q461 450 456 431 Q497 415 531 415 Q574 415 590 431 Q603 445 603 482 L603 674 L706 674 L706 481 Q706 431 694 398 Q680 366 657 347 Q614 311 543 311 Q503 311 463.5 319.5 Q424 328 402 342 Q354 311 298 311 Q294 311 292 311 Q266 311 214 321 L214 50 L152 0 L92 0 L92 674 L214 674 Z "/>
<glyph glyph-name="uni0664" unicode="٤" horiz-adv-x="529" d="M294 686 L304 686 Q361 686 428 661 L428 561 Q366 578 325 578 Q260 580 229 543 Q209 519 210 486 Q212 451 239 429 Q260 413 293 413 L417 413 L417 373 L367 311 Q270 311 226 279 Q187 251 187 199 Q187 160 209 135 Q241 102 315 102 L465 102 L465 62 L416 0 L280 0 Q181 0 123 53 Q65 106 65 190 Q65 249 98 295 Q127 334 173 356 Q122 385 106 440 Q93 469 93 504 Q93 512 94 519 Q97 568 122 604 Q173 682 294 686 Z "/>
<glyph glyph-name="uni0665" unicode="٥" horiz-adv-x="558" d="M245 587 L314 587 Q376 567 425 510 Q500 418 515 282 Q518 261 518 237 Q518 132 468 68 Q409 -9 282 -9 Q159 -9 97 66 Q47 130 47 237 Q47 262 50 287 Q67 419 128 499 Q178 565 245 587 Z M286 489 L279 489 Q232 470 200 392 Q168 318 168 248 Q168 179 190 140 Q216 93 282 93 Q331 93 359 119 Q398 156 396 250 Q396 325 361 400 Q327 472 286 489 Z "/>
<glyph glyph-name="uni0666" unicode="٦" horiz-adv-x="547" d="M239 686 Q273 686 307 678 Q364 664 401 623 Q455 566 455 460 L455 50 L394 0 L333 0 L333 451 Q333 533 273 562 Q241 578 196 578 Q139 578 69 553 L69 654 Q139 686 227 686 L239 686 Z "/>
<glyph glyph-name="uni0667" unicode="٧" horiz-adv-x="552" d="M522 676 L388 122 Q380 83 365 53 Q346 16 317 2 Q309 -2 306 -3 L244 -3 Q242 -3 233 2 Q206 17 189 52 Q173 83 163 122 L30 676 L154 676 L276 128 L398 676 L522 676 Z "/>
<glyph glyph-name="uni0668" unicode="٨" horiz-adv-x="552" d="M244 679 L306 679 Q309 678 317 674 Q337 665 354 639 Q377 606 388 553 L522 0 L398 0 L276 548 L154 0 L30 0 L163 553 Q175 600 191 629 Q209 661 233 674 Q242 679 244 679 Z "/>
<glyph glyph-name="uni0669" unicode="٩" horiz-adv-x="531" d="M255 686 Q334 686 386 647 Q457 595 457 499 L457 50 L395 0 L335 0 L335 275 L264 275 Q168 275 110 324 Q80 348 63 388 Q46 428 46 475 Q46 568 101 625 Q159 686 255 686 Z M255 583 Q212 583 185 554 Q161 527 161 482 Q162 427 193 403 Q223 378 285 378 L335 378 L335 500 Q335 537 312 560 Q289 583 255 583 Z "/>
<glyph glyph-name="uni066A" unicode="٪" horiz-adv-x="564" d="M127 689 L210 606 L210 568 L128 486 L26 586 L127 689 Z M530 673 L134 0 L37 0 L433 673 L530 673 Z M442 202 L525 120 L525 82 L443 -1 L340 100 L442 202 Z "/>
<glyph glyph-name="uni066B" unicode="٫" horiz-adv-x="235" d="M116 133 Q140 133 156 120 Q181 101 184 66 Q185 60 185 53 Q185 13 164 -30 Q147 -68 115 -106 L83 -106 L59 -86 Q78 -60 93 -32 Q103 -11 108 6 Q82 9 65 29 Q52 47 52 69 Q52 89 63 105 Q81 133 116 133 Z "/>
<glyph glyph-name="uni066C" unicode="٬" horiz-adv-x="272" d="M173 235 L197 215 Q175 185 164 161 Q153 141 149 123 Q177 120 192 99 Q204 83 204 60 Q204 41 194 23 Q176 -5 141 -5 Q118 -5 101 9 Q77 26 72 64 Q71 70 71 76 Q71 114 92 159 Q110 199 142 235 L173 235 Z "/>
<glyph glyph-name="uni066D" unicode="٭" horiz-adv-x="477" d="M289 682 L289 542 L407 592 L436 498 L307 467 L390 357 L310 299 L239 410 L168 299 L88 357 L171 467 L42 498 L72 592 L190 542 L190 641 L240 682 L289 682 Z "/>
<glyph glyph-name="uni066E" unicode="ٮ" horiz-adv-x="981" d="M912 460 L912 110 Q912 68 886 39 Q854 0 804 0 L244 0 Q179 0 132 42 Q69 95 69 180 L69 338 L131 388 L191 388 L191 180 Q191 145 215 123 Q238 102 268 102 L765 102 Q790 102 790 127 L790 460 L912 460 Z "/>
<glyph glyph-name="uni066F" unicode="ٯ" horiz-adv-x="791" d="M534 472 Q611 472 662 435 Q736 385 736 287 L736 24 Q736 -100 656 -169 Q580 -239 452 -239 L353 -239 Q223 -239 147 -170 Q69 -102 69 24 L69 135 L131 185 L191 185 L191 35 Q191 -43 226 -85 Q258 -120 319 -132 Q343 -136 402 -136 Q461 -136 486 -132 Q530 -124 559 -104 Q604 -70 611 4 Q571 -7 532 -7 Q508 -7 486 -3 Q421 8 377 50 Q341 85 321 134.5 Q301 184 301 237 Q301 348 373 413 Q435 472 534 472 Z M533 370 Q483 370 453 335 Q422 299 422 235 Q422 165 461 127 Q486 101 527 96 Q537 95 547 95 Q579 95 614 107 L614 287 Q614 323 591 348 Q567 370 533 370 Z "/>
<glyph glyph-name="uni0670" unicode="ٰ" d="M0 747 L54 747 L54 559 L27 537 L0 537 L0 747 Z "/>
<glyph glyph-name="uni0671" unicode="ٱ" horiz-adv-x="260" d="M194 951 Q201 952 207 952 Q235 952 256.5 938 Q278 924 285 900 Q289 890 289 879 Q289 837 248 812 Q220 794 178 794 Q153 794 125 800 Q113 803 84 813 Q48 825 38 825 Q17 825 -19 792 L-51 816 Q-16 883 36 885 Q62 885 86 874 Q108 905 136 926 Q165 948 194 951 Z M199 904 Q182 901 168 890 Q148 876 136 858 Q170 847 194 847 Q208 847 220 851 Q241 860 241 878 Q241 882 239 886 Q232 905 208 905 Q204 905 199 904 Z M191 716 L191 25 L129 -25 L69 -25 L69 716 L191 716 Z "/>
<glyph glyph-name="uni0679" unicode="ٹ" horiz-adv-x="1027" d="M447 619 L446 513 Q469 542 497 558 Q524 572 550 575 Q556 576 563 576 Q598 576 624 556 Q654 533 654 483 L654 444 Q654 421 639 406 Q623 388 598 388 L356 388 L356 441 L383 441 L383 619 L447 619 Z M557 526 Q530 526 499 503 Q468 479 447 441 L583 441 Q595 441 595 454 L595 485 Q595 507 583 516 Q574 526 557 526 Z M912 460 L912 110 Q912 68 886 39 Q854 0 804 0 L244 0 Q179 0 132 42 Q69 95 69 180 L69 338 L131 388 L191 388 L191 180 Q191 145 215 123 Q238 102 268 102 L765 102 Q790 102 790 127 L790 460 L912 460 Z "/>
<glyph glyph-name="uni067E" unicode="پ" horiz-adv-x="981" d="M912 460 L912 110 Q912 68 886 39 Q854 0 804 0 L244 0 Q179 0 132 42 Q69 95 69 180 L69 338 L131 388 L191 388 L191 180 Q191 145 215 123 Q238 102 268 102 L765 102 Q790 102 790 127 L790 460 L912 460 Z M415 -74 Q442 -74 461 -92.5 Q480 -111 480 -138 Q480 -165 461 -184 Q442 -203 415 -203 Q389 -203 370 -184 Q351 -165 351 -138 Q351 -111 369.5 -92.5 Q388 -74 415 -74 Z M567 -74 Q594 -74 612.5 -92.5 Q631 -111 631 -138 Q631 -165 612 -184 Q593 -203 567 -203 Q540 -203 521 -184 Q502 -165 502 -138 Q502 -111 521 -92.5 Q540 -74 567 -74 Z M491 -204 Q515 -204 532.5 -221.5 Q550 -239 550 -263 Q550 -288 533 -305.5 Q516 -323 491 -323 Q466 -323 449 -305.5 Q432 -288 432 -263 Q432 -239 449.5 -221.5 Q467 -204 491 -204 Z "/>
<glyph glyph-name="uni0686" unicode="چ" horiz-adv-x="685" d="M356 472 L367 472 Q484 472 555 404 Q630 334 630 224 L630 110 Q630 67 600 34 Q568 0 522 0 L317 0 Q245 -2 211 -36 Q177 -68 177 -135 Q177 -196 210 -234 Q249 -280 319 -280 Q333 -280 348 -278 L348 -314 L296 -378 Q238 -378 198.5 -363 Q159 -348 125 -313 Q55 -243 55 -137 Q55 -14 131 46 Q204 102 330 102 L483 102 Q494 102 501 109 Q508 116 508 127 L508 217 Q508 277 471 319 Q428 365 350 368 Q297 369 195 346 L195 443 Q284 471 356 472 Z M363 -74 Q390 -74 409 -93 Q428 -112 428 -139 Q428 -165 409 -184 Q390 -203 363 -203 Q336 -203 317 -184 Q298 -165 298 -139 Q298 -112 317 -93 Q336 -74 363 -74 Z M515 -74 Q541 -74 560 -93 Q579 -112 579 -139 Q579 -165 560 -184 Q541 -203 515 -203 Q488 -203 469 -184 Q450 -165 450 -139 Q450 -112 469 -93 Q488 -74 515 -74 Z M439 -204 Q464 -204 481 -221.5 Q498 -239 498 -264 Q498 -288 480.5 -305.5 Q463 -323 439 -323 Q415 -323 397.5 -305.5 Q380 -288 380 -264 Q380 -239 397 -221.5 Q414 -204 439 -204 Z "/>
<glyph glyph-name="uni0688" unicode="ڈ" horiz-adv-x="528" d="M203 781 L203 675 Q226 704 253 719 Q281 735 306 736 Q314 737 321 737 Q356 737 381 718 Q411 692 411 645 L411 605 Q411 583 396 568 Q380 550 355 550 L113 550 L113 603 L140 603 L140 781 L203 781 Z M314 688 Q289 688 257 665 Q223 639 205 603 L340 603 Q352 603 352 615 L352 647 Q352 669 340 678 Q330 688 314 688 Z M232 472 Q333 467 398 406 Q468 339 468 232 L468 110 Q468 63 434 31 Q403 0 360 0 L39 0 L39 102 L321 102 Q332 102 339 109 Q346 116 346 127 L346 220 Q346 289 304 331 Q265 370 191 373 Q157 373 140 369 L140 466 Q174 472 219 472 L232 472 Z "/>
<glyph glyph-name="uni0691" unicode="ڑ" horiz-adv-x="418" d="M144 782 L143 676 Q164 705 193 720 Q221 736 246 737 Q254 738 260 738 Q296 738 321 718 Q350 694 350 646 L350 606 Q350 584 336 568 Q321 551 295 551 L52 551 L52 604 L80 604 L80 782 L144 782 Z M254 688 Q228 689 201 669 Q167 646 144 604 L279 604 Q292 604 292 616 L292 648 Q292 669 279 679 Q269 688 254 688 Z M349 460 L349 24 Q349 -106 266 -174 Q216 -217 144 -231 Q109 -238 72 -238 Q59 -238 37 -236 L-12 -175 L-12 -132 Q20 -137 50 -137 Q62 -137 72 -136 Q152 -130 188 -89 Q227 -49 227 35 L227 460 L349 460 Z "/>
<glyph glyph-name="uni0698" unicode="ژ" horiz-adv-x="418" d="M226 800 Q250 800 267.5 782.5 Q285 765 285 741 Q285 716 268 698.5 Q251 681 226 681 Q201 681 183.5 698.5 Q166 716 166 741 Q166 765 183.5 782.5 Q201 800 226 800 Z M150 680 Q177 680 196 661 Q215 642 215 615 Q215 589 196 570 Q177 551 150 551 Q123 551 104.5 569.5 Q86 588 86 615 Q86 642 104.5 661 Q123 680 150 680 Z M302 680 Q328 680 347 661 Q366 642 366 615 Q366 589 347 570 Q328 551 302 551 Q275 551 256 570 Q237 589 237 615 Q237 642 256 661 Q275 680 302 680 Z M350 460 L350 24 Q350 -104 268 -173 Q221 -215 147 -231 Q111 -238 73 -238 Q60 -238 38 -236 L-11 -175 L-11 -132 Q21 -137 51 -137 Q63 -137 73 -136 Q148 -130 186 -93 Q228 -51 228 35 L228 460 L350 460 Z "/>
<glyph glyph-name="uni06A1" unicode="ڡ" horiz-adv-x="1014" d="M759 472 Q832 472 884 436 Q959 387 959 287 L959 109 Q959 62 925 30 Q892 0 851 0 L245 0 Q179 0 129 45 Q70 97 70 180 L70 338 L132 388 L192 388 L192 180 Q192 148 214 126 Q235 102 269 102 L571 102 Q524 165 524 247 Q524 356 600 419 Q664 472 759 472 Z M758 370 Q701 370 670 329 Q645 294 645 238 Q645 174 683 137 Q718 102 776 102 L812 102 Q837 102 837 127 L837 287 Q837 327 812 350 Q791 370 758 370 Z "/>
<glyph glyph-name="uni06A4" unicode="ڤ" horiz-adv-x="1014" d="M759 800 Q784 800 801 782.5 Q818 765 818 740 Q818 715 801 698 Q784 681 759 681 Q734 681 716.5 698 Q699 715 699 740 Q699 765 716.5 782.5 Q734 800 759 800 Z M683 680 Q710 680 729 661 Q748 642 748 615 Q748 589 729 570 Q710 551 683 551 Q656 551 637.5 569.5 Q619 588 619 615 Q619 642 637.5 661 Q656 680 683 680 Z M835 680 Q861 680 880 661 Q899 642 899 615 Q899 589 880 570 Q861 551 835 551 Q808 551 789 570 Q770 589 770 615 Q770 642 789 661 Q808 680 835 680 Z M759 472 Q832 472 884 436 Q959 387 959 287 L959 109 Q959 62 925 30 Q892 0 851 0 L245 0 Q179 0 129 45 Q70 97 70 180 L70 338 L132 388 L192 388 L192 180 Q192 148 214 126 Q235 102 269 102 L571 102 Q524 165 524 247 Q524 356 600 419 Q664 472 759 472 Z M758 370 Q701 370 670 329 Q645 294 645 238 Q645 174 683 137 Q718 102 776 102 L812 102 Q837 102 837 127 L837 287 Q837 327 812 350 Q791 370 758 370 Z "/>
<glyph glyph-name="uni06A9" unicode="ک" horiz-adv-x="968" d="M845 730 L845 617 L636 490 Q738 452 809 376 Q908 273 913 110 Q913 69 886 37 Q852 0 805 0 L244 0 Q183 0 134 39 Q69 94 69 180 L69 340 L134 393 L191 393 L191 180 Q191 145 216 122 Q239 102 268 102 L765 102 Q780 102 786 111 Q790 118 790 125 Q790 127 790 128 Q784 211 736 276 Q694 334 624 368 Q565 397 498 404 Q490 404 490 412 L490 526 L845 730 Z "/>
<glyph glyph-name="uni06AF" unicode="گ" horiz-adv-x="968" d="M490 660 L845 865 L845 780 L490 574 L490 660 Z M845 730 L845 617 L636 490 Q738 452 809 376 Q908 273 913 110 Q913 69 886 37 Q852 0 805 0 L244 0 Q183 0 134 39 Q69 94 69 180 L69 340 L134 393 L191 393 L191 180 Q191 145 216 122 Q239 102 268 102 L765 102 Q780 102 786 111 Q790 118 790 125 Q790 127 790 128 Q784 211 736 276 Q694 334 624 368 Q565 397 498 404 Q490 404 490 412 L490 526 L845 730 Z "/>
<glyph glyph-name="uni06BA" unicode="ں" horiz-adv-x="805" d="M736 460 L736 24 Q736 -100 659 -169 Q582 -239 452 -239 L353 -239 Q215 -239 138 -162 Q69 -93 69 24 L69 203 L131 253 L191 253 L191 35 Q191 -37 221 -78 Q251 -121 319 -133 Q343 -137 403 -137 Q462 -137 486 -133 Q548 -121 579 -84 Q614 -44 614 35 L614 460 L736 460 Z "/>
<glyph glyph-name="uni06BE" unicode="ھ" horiz-adv-x="810" d="M506 498 Q605 492 668 437 Q755 358 755 210 L755 110 Q755 64 722 31 Q689 0 646 0 L410 0 Q358 0 336 11 L332 11 Q310 0 258 0 L105 0 L55 62 L55 102 L196 102 Q179 126 171 153 Q161 182 161 218 Q161 278 191 324 Q219 363 261 380 L261 449 Q308 471 365 485 Q423 499 479 499 Q493 499 506 498 Z M478 400 Q464 401 450 401 Q406 401 361 392 Q426 383 466 338 Q507 292 507 218 Q507 186 499 156 Q490 127 473 102 L608 102 Q618 102 625 108 Q633 116 633 127 L633 194 Q633 307 583 357 Q548 393 478 400 Z M333 311 Q293 311 274 275 Q260 252 260 214 Q260 174 278 148 Q296 118 333 114 Q368 118 386 145 Q406 174 406 214 Q406 262 384 287 Q363 311 333 311 Z "/>
<glyph glyph-name="uni06C0" unicode="ۀ" horiz-adv-x="544" d="M299 746 Q307 747 315 747 Q340 747 368 738 L368 685 Q348 691 332 691 Q325 691 319 690 Q305 687 296 674 Q288 663 288 643 Q288 625 298 612 Q310 595 334 595 L401 595 L401 571 L378 542 L201 542 L201 595 L241 595 Q224 621 224 653 Q224 685 238 707 Q258 739 299 746 Z M489 487 L489 175 Q489 89 430 38 Q375 -9 279 -9 Q173 -9 113 59 Q55 120 55 224 Q55 345 134 416 Q197 474 283 476 Q337 478 386 453 L428 487 L489 487 Z M290 372 Q246 369 215 337 Q176 297 176 224 Q176 160 205 125 Q233 93 280 93 Q324 93 346 117 Q367 141 367 176 L367 358 Q332 372 301 372 L290 372 Z "/>
<glyph glyph-name="uni06C1" unicode="ہ" horiz-adv-x="544" d="M489 487 L489 175 Q489 89 430 38 Q375 -9 279 -9 Q173 -9 113 59 Q55 120 55 224 Q55 345 134 416 Q197 474 283 476 Q337 478 386 453 L428 487 L489 487 Z M290 372 Q246 369 215 337 Q176 297 176 224 Q176 160 205 125 Q233 93 280 93 Q324 93 346 117 Q367 141 367 176 L367 358 Q332 372 301 372 L290 372 Z "/>
<glyph glyph-name="uni06C2" unicode="ۂ" horiz-adv-x="544" d="M297 746 Q304 747 312 747 Q339 747 372 736 L372 681 Q351 690 328 690 Q308 690 297 678 Q285 666 285 643 Q285 627 294 613 Q307 595 332 595 L405 595 L405 570 L382 541 L199 541 L199 595 L238 595 Q222 622 222 652 Q222 685 235 707 Q255 739 297 746 Z M489 487 L489 175 Q489 89 430 38 Q375 -9 279 -9 Q173 -9 113 59 Q55 120 55 224 Q55 345 134 416 Q197 474 283 476 Q337 478 386 453 L428 487 L489 487 Z M290 372 Q246 369 215 337 Q176 297 176 224 Q176 160 205 125 Q233 93 280 93 Q324 93 346 117 Q367 141 367 176 L367 358 Q332 372 301 372 L290 372 Z "/>
<glyph glyph-name="uni06C3" unicode="ۃ" horiz-adv-x="544" d="M272 680 Q299 680 317.5 661 Q336 642 336 615 Q336 588 317.5 569.5 Q299 551 272 551 Q245 551 226 570 Q207 589 207 615 Q207 642 226 661 Q245 680 272 680 Z M424 680 Q451 680 470 661 Q489 642 489 615 Q489 589 470 570 Q451 551 424 551 Q397 551 378 570 Q359 589 359 615 Q359 642 378 661 Q397 680 424 680 Z M489 487 L489 175 Q489 89 430 38 Q375 -9 279 -9 Q173 -9 113 59 Q55 120 55 224 Q55 345 134 416 Q197 474 283 476 Q337 478 386 453 L428 487 L489 487 Z M290 372 Q246 369 215 337 Q176 297 176 224 Q176 160 205 125 Q233 93 280 93 Q324 93 346 117 Q367 141 367 176 L367 358 Q332 372 301 372 L290 372 Z "/>
<glyph glyph-name="uni06CC" unicode="ی" horiz-adv-x="776" d="M525 472 Q588 473 650 454 L650 362 Q591 377 547 376 Q492 374 460 343 Q435 319 433 276 Q433 271 433 267 Q433 233 451 210 Q462 196 482.5 185 Q503 174 552 157 Q615 134 644.5 116.5 Q674 99 691 75 Q730 25 730 -34 Q730 -47 728 -59 Q719 -145 641 -194 Q570 -239 452 -239 L353 -239 Q236 -239 162 -182 Q69 -112 69 24 L69 125 L131 174 L191 174 L191 35 Q191 -38 221 -79 Q252 -121 319 -132 Q349 -138 416 -138 Q473 -138 499 -132 Q547 -123 572 -107 Q606 -84 609 -49 Q610 -42 610 -35 Q610 -3 590 19 Q569 41 495 65 Q437 83 409 98 Q364 124 341 164 Q315 207 315 268 Q315 274 315 279 Q320 374 375 423 Q429 470 525 472 Z "/>
<glyph glyph-name="uni06D2" unicode="ے" horiz-adv-x="699" d="M495 502 L495 467 Q495 410 479 372.5 Q463 335 426 306 Q394 281 307 244 L245 218 Q214 204 196 192 Q160 167 160 139 Q160 122 171 112 Q182 102 201 102 L690 102 L690 62 L640 0 L191 0 Q118 0 75 46 Q42 82 41 133 Q41 216 122 268 Q155 291 243 326 Q311 355 330 367 Q354 383 363.5 405 Q373 427 373 467 L373 502 L495 502 Z "/>
<glyph glyph-name="uni06D3" unicode="ۓ" horiz-adv-x="699" d="M208 706 Q216 707 224 707 Q248 707 278 698 L278 645 Q257 652 242 652 Q235 652 228 651 Q215 649 205 636 Q197 621 197 604 Q197 585 207 572 Q221 555 244 555 L311 555 L311 531 L287 502 L111 502 L111 555 L150 555 Q134 582 134 613 Q134 647 147 667 Q167 699 208 706 Z M495 502 L495 467 Q495 410 479 372.5 Q463 335 426 306 Q394 281 307 244 L245 218 Q214 204 196 192 Q160 167 160 139 Q160 122 171 112 Q182 102 201 102 L690 102 L690 62 L640 0 L191 0 Q118 0 75 46 Q42 82 41 133 Q41 216 122 268 Q155 291 243 326 Q311 355 330 367 Q354 383 363.5 405 Q373 427 373 467 L373 502 L495 502 Z "/>
<glyph glyph-name="uni06D4" unicode="۔" horiz-adv-x="161" d="M165 102 L165 0 L-3 0 L-3 102 L165 102 Z "/>
<glyph glyph-name="uni06F0" unicode="۰" horiz-adv-x="305" d="M158 363 L261 261 L261 213 L160 110 L32 236 L158 363 Z "/>
<glyph glyph-name="uni06F1" unicode="۱" horiz-adv-x="306" d="M214 674 L214 50 L152 0 L92 0 L92 674 L214 674 Z "/>
<glyph glyph-name="uni06F2" unicode="۲" horiz-adv-x="547" d="M308 686 L320 686 Q408 686 478 654 L478 553 Q409 578 352 578 Q301 578 268 558 Q214 529 214 451 L214 50 L152 0 L92 0 L92 460 Q92 556 137 614 Q173 660 241 678 Q273 686 308 686 Z "/>
<glyph glyph-name="uni06F3" unicode="۳" horiz-adv-x="761" d="M214 674 L214 424 Q247 414 281 414 Q327 414 343 430 Q357 445 357 481 L357 674 L461 674 L461 477 Q461 450 456 431 Q497 415 531 415 Q574 415 590 431 Q603 445 603 482 L603 674 L706 674 L706 481 Q706 431 694 398 Q680 366 657 347 Q614 311 543 311 Q503 311 463.5 319.5 Q424 328 402 342 Q354 311 298 311 Q294 311 292 311 Q266 311 214 321 L214 50 L152 0 L92 0 L92 674 L214 674 Z "/>
<glyph glyph-name="uni06F4" unicode="۴" horiz-adv-x="584" d="M372 663 Q391 665 406 665 Q441 665 478 655 L478 558 Q449 565 423 565 Q411 565 400 564 Q361 560 329 545 Q280 523 247 472 Q227 445 215 408 Q284 384 370 382 Q463 382 529 398 L529 357 L483 293 Q432 281 369 281 Q283 283 214 309 L214 52 L149 0 L92 0 L92 674 L214 674 L214 570 Q241 610 279 632 Q319 658 372 663 Z "/>
<glyph glyph-name="uni06F5" unicode="۵" horiz-adv-x="590" d="M300 49 L296 49 Q272 16 248 2 Q224 -12 192 -12 Q186 -12 180 -12 Q117 -7 81 48 Q59 84 51 138 Q47 164 47 193 Q47 238 56 287 Q75 385 127 463 Q163 518 223 571 L206 587 L223 653 L254 684 Q308 655 385 580 Q426 540 456 497 Q486 453 510 394 Q530 347 541 293 Q550 249 550 197 Q550 150 542 117 Q528 55 493 23 Q457 -11 409 -13 Q368 -14 340 7 Q319 21 300 49 Z M294 159 L303 159 Q337 99 366 99 Q395 99 412 124 Q432 154 432 211 Q432 242 426 278 Q415 342 382 402 Q348 465 299 501 Q250 475 205 381 Q181 334 171 284 Q164 241 164 207 Q164 170 172 146 Q189 99 230 99 Q260 99 294 159 Z "/>
<glyph glyph-name="uni06F6" unicode="۶" horiz-adv-x="525" d="M314 686 L321 686 Q363 686 408 673 L408 571 Q373 578 347 578 Q343 578 338 578 Q315 578 297 572 Q269 565 250 543 Q228 517 230 475 Q232 427 259 407 Q281 389 314 391 Q407 415 488 416 L488 373 L433 305 Q382 302 334 278 Q281 252 242 205 Q188 142 164 50 L102 0 L30 0 Q47 121 96 203 Q140 280 203 320 Q166 337 145 370 Q116 409 111 464 Q110 477 110 492 Q110 568 147 615 Q202 682 314 686 Z "/>
<glyph glyph-name="uni06F7" unicode="۷" horiz-adv-x="552" d="M522 676 L388 122 Q380 83 365 53 Q346 16 317 2 Q309 -2 306 -3 L244 -3 Q242 -3 233 2 Q206 17 189 52 Q173 83 163 122 L30 676 L154 676 L276 128 L398 676 L522 676 Z "/>
<glyph glyph-name="uni06F8" unicode="۸" horiz-adv-x="552" d="M244 679 L306 679 Q309 678 317 674 Q337 665 354 639 Q377 606 388 553 L522 0 L398 0 L276 548 L154 0 L30 0 L163 553 Q175 600 191 629 Q209 661 233 674 Q242 679 244 679 Z "/>
<glyph glyph-name="uni06F9" unicode="۹" horiz-adv-x="531" d="M255 686 Q334 686 386 647 Q457 595 457 499 L457 50 L395 0 L335 0 L335 275 L264 275 Q168 275 110 324 Q80 348 63 388 Q46 428 46 475 Q46 568 101 625 Q159 686 255 686 Z M255 583 Q212 583 185 554 Q161 527 161 482 Q162 427 193 403 Q223 378 285 378 L335 378 L335 500 Q335 537 312 560 Q289 583 255 583 Z "/>
<glyph glyph-name="Euro" unicode="€" horiz-adv-x="640" d="M413 685 Q481 685 530 654 L530 552 Q466 584 415 584 Q367 584 334 554 Q293 519 278 435 L456 435 L456 360 L272 360 Q270 353 270 334 Q270 313 272 300 L456 300 L456 225 L280 225 Q293 158 330 126 Q361 98 436 94 Q442 94 445 94 Q498 94 548 109 L548 62 L498 0 Q457 -9 414 -9 Q310 -9 246 49 Q180 109 159 225 L92 225 L92 300 L151 300 Q149 315 149 339 Q149 354 150 360 L92 360 L92 435 L157 435 Q175 555 240 620 Q305 685 413 685 Z "/>
<glyph glyph-name="uni2153" unicode="⅓" horiz-adv-x="775" d="M234 673 L234 302 L186 263 L139 263 L139 565 L61 508 L16 566 L154 673 L234 673 Z M619 673 L222 0 L125 0 L521 673 L619 673 Z M587 417 Q595 418 602 418 Q622 418 646 412 Q689 401 712 375 Q733 351 737 314 Q737 310 737 305 Q737 278 724 257 Q704 222 656 213 Q701 209 730 178 Q757 148 757 114 Q757 91 748 71 Q735 41 708 24 Q670 -4 601 -4 Q598 -4 593 -4 Q546 -2 519 6 L490 41 L490 74 Q543 58 571 58 Q620 58 643 78 Q661 92 661 116 Q661 142 636 161 Q604 187 542 186 L542 244 L588 244 Q614 244 629 256 Q646 271 647 295 Q647 297 647 298 Q647 319 632 331 Q619 344 598 348 Q585 350 574 350 Q553 350 514 340 L514 401 Q559 417 587 417 Z "/>
<glyph glyph-name="uni2154" unicode="⅔" horiz-adv-x="822" d="M126 674 Q146 679 168 679 Q181 679 196 677 Q269 666 289 605 Q295 585 295 565 Q295 552 293 539 Q283 498 238 451 Q214 427 158 372 L130 346 L307 346 L307 308 L270 265 L15 265 L15 340 L66 385 Q125 437 156 469 Q186 501 197 521 Q205 535 205 553 Q205 557 205 560 Q203 584 189 594 Q174 606 149 606 Q126 604 81 577 L35 634 Q81 665 126 674 Z M677 673 L281 0 L183 0 L579 673 L677 673 Z M635 417 Q642 418 650 418 Q670 418 693 412 Q737 401 760 375 Q782 349 785 314 Q785 310 785 308 Q785 279 772 257 Q750 221 704 213 Q747 209 778 178 Q804 149 804 114 Q804 91 795 71 Q782 41 756 24 Q717 -4 649 -4 Q646 -4 641 -4 Q594 -2 567 6 L537 41 L537 74 Q590 58 618 58 Q669 58 690 78 Q709 91 709 116 Q709 141 684 161 Q652 187 589 186 L589 244 L635 244 Q661 244 676 256 Q694 271 694 295 Q694 298 694 299 Q694 320 680 331 Q667 344 646 348 Q633 350 622 350 Q600 350 561 340 L561 401 Q606 417 635 417 Z "/>
<glyph glyph-name="oneeighth" unicode="⅛" horiz-adv-x="806" d="M234 673 L234 302 L186 263 L139 263 L139 565 L61 508 L16 566 L154 673 L234 673 Z M619 673 L222 0 L125 0 L521 673 L619 673 Z M635 415 Q694 415 731 388 Q766 363 766 315 Q766 285 745 256 Q726 232 684 209 Q732 190 754 167 Q785 139 785 98 Q785 53 748 24 Q706 -10 632 -10 Q566 -10 525 18 Q481 46 481 101 Q481 137 510 164 Q535 189 582 209 Q546 225 524 254 Q500 284 500 314 Q500 364 537 391 Q573 415 635 415 Z M634 355 Q610 355 600 345 Q587 335 587 314 Q587 295 598 278 Q615 256 635 247 Q657 258 669 278 Q680 295 680 315 Q680 334 669 343 Q657 355 634 355 Z M634 175 Q602 161 587 148 Q569 129 569 103 Q569 56 634 56 Q699 56 699 103 Q700 128 681 146 Q665 162 634 175 Z "/>
<glyph glyph-name="threeeighths" unicode="⅜" horiz-adv-x="843" d="M114 685 L123 685 Q147 685 172 679 Q215 668 238 642 Q259 618 264 581 Q264 577 264 575 Q264 547 251 525 Q229 489 183 481 Q229 475 256 445 Q283 416 283 381 Q283 359 274 339 Q262 310 234 291 Q195 264 128 264 Q125 264 120 264 Q73 264 45 273 L16 308 L16 341 Q66 326 97 326 Q146 326 169 345 Q187 357 187 383 Q187 410 163 429 Q129 454 68 454 L68 511 L115 511 Q139 511 155 524 Q173 540 173 562 Q173 564 173 566 Q173 587 159 598 Q145 612 125 615 Q112 617 100 617 Q81 617 40 607 L40 669 Q86 684 114 685 Z M655 673 L259 0 L161 0 L558 673 L655 673 Z M672 415 Q731 415 768 388 Q804 362 804 315 Q804 286 782 256 Q763 232 721 209 Q769 190 792 167 Q822 137 822 98 Q822 53 785 24 Q741 -10 669 -10 Q604 -10 561 18 Q518 47 518 101 Q518 136 548 164 Q570 188 619 209 Q583 225 561 254 Q538 283 538 314 Q538 364 574 391 Q610 415 672 415 Z M671 355 Q648 355 637 345 Q624 334 624 314 Q624 295 635 278 Q651 257 672 247 Q694 258 706 278 Q717 295 717 315 Q717 334 706 343 Q694 355 671 355 Z M671 175 Q639 161 624 148 Q606 129 606 103 Q606 56 671 56 Q736 56 736 103 Q737 127 718 146 Q702 162 671 175 Z "/>
<glyph glyph-name="fiveeighths" unicode="⅝" horiz-adv-x="862" d="M675 673 L278 0 L181 0 L577 673 L675 673 Z M266 672 L266 604 L112 604 L107 524 Q125 526 141 526 Q182 526 213 514 Q254 500 274 464 Q294 431 294 385 Q294 335 265 298 Q229 256 164 250 Q153 249 141 249 Q98 249 48 261 L16 299 L16 330 Q71 314 109 314 Q114 314 120 314 Q166 316 188 333 Q209 350 209 386 Q209 421 186 441 Q166 459 129 462 Q120 463 108 463 Q92 463 69 461 Q55 460 22 455 L36 672 L266 672 Z M692 415 Q751 415 787 388 Q823 363 823 315 Q823 285 802 256 Q782 232 741 209 Q787 191 811 167 Q841 139 841 98 Q841 53 804 24 Q762 -10 689 -10 Q622 -10 581 18 Q538 46 538 101 Q538 137 567 164 Q589 188 638 209 Q604 225 581 254 Q557 284 557 314 Q557 364 593 391 Q631 415 692 415 Z M690 355 Q667 355 657 345 Q643 334 643 314 Q643 297 655 278 Q672 256 692 247 Q713 258 726 278 Q736 294 736 315 Q736 334 726 343 Q714 355 690 355 Z M690 175 Q660 163 643 148 Q625 126 626 103 Q626 56 690 56 Q721 56 738.5 68.5 Q756 81 756 103 Q756 128 738 146 Q722 162 690 175 Z "/>
<glyph glyph-name="seveneighths" unicode="⅞" horiz-adv-x="794" d="M604 673 L208 0 L111 0 L507 673 L604 673 Z M299 672 L299 613 L166 298 L117 259 L55 259 L202 597 L11 597 L11 672 L299 672 Z M624 415 Q683 415 719 388 Q755 363 755 315 Q755 285 734 256 Q713 230 673 209 Q721 190 743 167 Q773 139 773 98 Q773 53 736 24 Q694 -10 621 -10 Q554 -10 513 18 Q469 47 469 101 Q469 134 499 164 Q522 188 571 209 Q536 224 513 254 Q489 284 489 314 Q489 365 526 391 Q562 415 624 415 Z M622 355 Q600 355 589 345 Q576 335 576 314 Q576 293 587 278 Q604 256 624 247 Q647 259 658 278 Q669 295 669 315 Q669 334 658 343 Q646 355 622 355 Z M622 175 Q592 162 576 148 Q557 127 558 103 Q558 56 622 56 Q653 56 670.5 68.5 Q688 81 688 103 Q688 128 670 146 Q654 162 622 175 Z "/>
<glyph glyph-name="uni25CC" unicode="◌" horiz-adv-x="545" d="M271 511 Q282 511 289 504 Q296 497 296 486 Q296 475 289 468 Q282 461 271 461 Q260 461 253 468 Q246 475 246 486 Q246 497 253 504 Q260 511 271 511 Z M191 495 Q202 495 209 488 Q216 481 216 470 Q216 459 209 452 Q202 445 191 445 Q180 445 173 452 Q166 459 166 470 Q166 481 173 488 Q180 495 191 495 Z M352 495 Q363 495 370 488 Q377 481 377 470 Q377 459 370 452 Q363 445 352 445 Q341 445 334 452 Q327 459 327 470 Q327 481 334 488 Q341 495 352 495 Z M123 449 Q134 449 141 442 Q148 435 148 424 Q148 414 140.5 407 Q133 400 123 400 Q113 400 105.5 407 Q98 414 98 424 Q98 435 105 442 Q112 449 123 449 Z M420 449 Q431 449 438 442 Q445 435 445 424 Q445 414 437.5 407 Q430 400 420 400 Q410 400 402.5 407 Q395 414 395 424 Q395 435 402 442 Q409 449 420 449 Z M78 381 Q88 381 95 373.5 Q102 366 102 356 Q102 346 95 338.5 Q88 331 78 331 Q67 331 60 338 Q53 345 53 356 Q53 367 60 374 Q67 381 78 381 Z M464 381 Q475 381 482 374 Q489 367 489 356 Q489 345 482 338 Q475 331 464 331 Q453 331 446 338 Q439 345 439 356 Q439 367 446 374 Q453 381 464 381 Z M62 301 Q73 301 80 294 Q87 287 87 276 Q87 265 80 258 Q73 251 62 251 Q51 251 44 258 Q37 265 37 276 Q37 287 44 294 Q51 301 62 301 Z M483 299 Q494 299 501 292 Q508 285 508 274 Q508 264 500.5 256.5 Q493 249 483 249 Q473 249 465.5 256.5 Q458 264 458 274 Q458 285 465 292 Q472 299 483 299 Z M78 221 Q88 221 95 214 Q102 207 102 197 Q102 187 95 179.5 Q88 172 78 172 Q67 172 60 179 Q53 186 53 197 Q53 207 60.5 214 Q68 221 78 221 Z M464 218 Q475 218 482 211 Q489 204 489 193 Q489 182 482 175 Q475 168 464 168 Q453 168 446 175 Q439 182 439 193 Q439 204 446 211 Q453 218 464 218 Z M123 152 Q133 152 140.5 145 Q148 138 148 128 Q148 117 141 110 Q134 103 123 103 Q112 103 105 110 Q98 117 98 128 Q98 138 105.5 145 Q113 152 123 152 Z M420 149 Q431 149 438 142 Q445 135 445 124 Q445 113 438 106 Q431 99 420 99 Q409 99 402 106 Q395 113 395 124 Q395 135 402 142 Q409 149 420 149 Z M191 104 Q202 104 209 97 Q216 90 216 79 Q216 68 209 61 Q202 54 191 54 Q180 54 173 61 Q166 68 166 79 Q166 90 173 97 Q180 104 191 104 Z M352 104 Q363 104 370 97 Q377 90 377 79 Q377 68 370 61 Q363 54 352 54 Q341 54 334 61 Q327 68 327 79 Q327 90 334 97 Q341 104 352 104 Z M271 87 Q281 87 288.5 80 Q296 73 296 63 Q296 52 289 45 Q282 38 271 38 Q260 38 253 45 Q246 52 246 63 Q246 73 253.5 80 Q261 87 271 87 Z "/>
<glyph glyph-name="uniE002" unicode="" horiz-adv-x="666" d="M282 812 Q289 813 294 813 Q323 813 344.5 799 Q366 785 373 761 Q376 752 376 742 Q376 699 335 672 Q307 655 266 655 Q241 655 212 661 Q200 664 171 674 Q135 686 125 686 Q104 686 68 653 L36 677 Q71 744 123 746 Q149 746 173 735 Q195 767 223 787 Q252 810 282 812 Z M286 765 Q271 763 255 751 Q242 742 223 719 Q257 708 280 708 Q295 708 306 712 Q328 721 328 738 Q328 743 326 747 Q319 766 295 766 Q291 766 286 765 Z M597 716 L597 110 Q597 67 569 37 Q538 0 489 0 L88 0 L38 62 L38 102 L281 102 L116 593 L231 593 L395 102 L450 102 Q462 102 470 110 Q475 118 475 127 L475 716 L597 716 Z "/>
<glyph glyph-name="uniE003" unicode="" horiz-adv-x="643" d="M281 812 Q288 813 293 813 Q322 813 343.5 799 Q365 785 372 761 Q375 752 375 742 Q375 699 334 672 Q306 655 265 655 Q240 655 211 661 Q199 664 170 674 Q134 686 124 686 Q103 686 67 653 L35 677 Q70 744 122 746 Q148 746 172 735 Q194 767 222 787 Q251 810 281 812 Z M285 765 Q270 763 254 751 Q241 742 222 719 Q256 708 279 708 Q294 708 305 712 Q327 721 327 738 Q327 743 325 747 Q318 766 294 766 Q290 766 285 765 Z M596 716 L596 128 Q596 110 595 102 L647 102 L647 0 L608 0 L575 41 L572 41 Q554 19 533 10 Q511 0 489 0 L87 0 L37 62 L37 102 L280 102 L115 593 L230 593 L394 102 L449 102 Q462 102 468 110 Q474 118 474 127 L474 716 L596 716 Z "/>
<glyph glyph-name="uniE004" unicode="" d="M344 727 Q348 717 348 707 Q348 665 307 638 Q280 621 238 621 Q212 621 184 627 Q172 630 143 639 Q107 652 96 652 Q75 652 39 619 L8 643 Q44 710 95 712 Q118 712 145 701 Q168 734 194 753 Q225 776 253 778 Q260 779 266 779 Q294 779 315.5 765 Q337 751 344 727 Z M258 731 Q242 728 226 717 Q209 705 195 685 Q229 674 252 674 Q267 674 278 678 Q300 687 300 705 Q300 709 298 713 Q291 732 267 732 Q263 732 258 731 Z "/>
<glyph glyph-name="uniE005" unicode="" d="M163 941 L163 755 L136 732 L109 732 L109 941 L163 941 Z M273 694 L273 576 Q273 556 261 543 Q248 527 225 527 L171 527 L155 544 L154 544 Q151 539 142 533 Q131 527 118 527 L49 527 Q26 527 12 543 Q0 558 0 576 L0 648 L27 670 L54 670 L54 581 Q54 577 57 574 Q59 571 64 571 L98 571 Q103 571 106 574 Q110 577 110 582 L110 670 L164 670 L164 571 L209 571 Q213 571 216 574 Q219 576 219 581 L219 694 L273 694 Z "/>
<glyph glyph-name="uniE006" unicode="" d="M184 970 Q223 969 243 938 Q257 917 257 892 Q259 815 158 787 L41 754 L22 778 L22 802 L124 830 Q98 855 98 889 L98 896 Q101 929 123 949.5 Q145 970 178 970 L184 970 Z M178 927 Q164 927 155.5 917.5 Q147 908 147 892 Q147 876 155.5 863 Q164 850 178 846 Q208 862 208 888 Q209 905 200.5 915.5 Q192 926 178 927 Z M273 692 L273 574 Q273 554 261 541 Q248 525 225 525 L171 525 L155 542 L154 542 Q149 535 142 532 Q132 525 118 525 L49 525 Q26 525 12 541 Q0 556 0 574 L0 646 L27 668 L54 668 L54 579 Q54 575 57 573 Q58 569 64 569 L98 569 Q103 569 106 572 Q110 575 110 580 L110 668 L164 668 L164 569 L209 569 Q213 569 216 572 Q219 575 219 579 L219 692 L273 692 Z "/>
<glyph glyph-name="uniE007" unicode="" d="M267 954 Q294 953 313.5 935.5 Q333 918 338 890 Q339 881 339 873 Q339 848 327 823 Q312 798 286 781 Q247 756 199 756 Q135 756 92 802 L46 760 L17 763 L0 781 L103 870 Q119 842 146.5 824 Q174 806 201 806 Q208 806 214 807 Q181 832 181 874 Q181 877 181 880 Q184 914 207.5 934.5 Q231 955 267 954 Z M261 910 Q230 910 230 875 Q230 859 239 846 Q248 833 262 829 Q289 844 291 872 Q291 889 283 899.5 Q275 910 261 910 Z M316 692 L316 574 Q316 556 304 541 Q291 525 267 525 L214 525 L198 542 L197 542 Q189 534 185 532 Q175 525 161 525 L92 525 Q69 525 55 541 Q43 554 43 574 L43 646 L70 668 L97 668 L97 579 Q97 575 99 573 Q102 569 107 569 L141 569 Q146 569 149 572 Q152 575 152 580 L152 668 L207 668 L207 569 L252 569 Q256 569 259 572 Q262 575 262 579 L262 692 L316 692 Z "/>
<glyph glyph-name="uniE008" unicode="" d="M247 864 L247 812 L41 754 L22 778 L22 802 L247 864 Z M273 692 L273 574 Q273 554 261 541 Q248 525 225 525 L171 525 L155 542 L154 542 Q149 535 142 532 Q132 525 118 525 L49 525 Q26 525 12 541 Q0 556 0 574 L0 646 L27 668 L54 668 L54 579 Q54 575 57 573 Q58 569 64 569 L98 569 Q103 569 106 572 Q110 575 110 580 L110 668 L164 668 L164 569 L209 569 Q213 569 216 572 Q219 575 219 579 L219 692 L273 692 Z "/>
<glyph glyph-name="uniE009" unicode="" d="M248 966 L248 913 L38 855 L19 878 L19 902 L248 966 Z M247 864 L247 812 L41 754 L22 778 L22 802 L247 864 Z M273 692 L273 574 Q273 554 261 541 Q248 525 225 525 L171 525 L155 542 L154 542 Q149 535 142 532 Q132 525 118 525 L49 525 Q26 525 12 541 Q0 556 0 574 L0 646 L27 668 L54 668 L54 579 Q54 575 57 573 Q58 569 64 569 L98 569 Q103 569 106 572 Q110 575 110 580 L110 668 L164 668 L164 569 L209 569 Q213 569 216 572 Q219 575 219 579 L219 692 L273 692 Z "/>
<glyph glyph-name="uniE00A" unicode="" d="M273 852 L273 734 Q273 715 261 701 Q247 684 225 684 L171 684 L155 701 L154 701 Q150 697 142 691 Q130 684 118 684 L49 684 Q27 684 12 701 Q0 716 0 734 L0 806 L27 828 L54 828 L54 739 Q54 735 57 732 Q59 729 64 729 L98 729 Q103 729 106 732 Q110 735 110 740 L110 828 L164 828 L164 729 L209 729 Q212 729 216 731 Q219 734 219 739 L219 852 L273 852 Z M247 572 L41 516 L22 539 L22 563 L247 625 L247 572 Z "/>
<glyph glyph-name="uniE00B" unicode="" d="M273 962 L273 843 Q273 823 261 811 Q249 794 225 794 L171 794 L155 811 L154 811 Q152 809 142 801 Q132 794 118 794 L49 794 Q26 794 12 810 Q0 825 0 843 L0 915 L27 937 L54 937 L54 848 Q54 844 57 842 Q59 838 64 838 L98 838 Q103 838 106 841 Q110 844 110 850 L110 937 L164 937 L164 838 L209 838 Q213 838 216 841 Q219 844 219 848 L219 962 L273 962 Z M247 680 L41 623 L21 646 L21 670 L247 733 L247 680 Z M247 579 L41 522 L21 545 L21 569 L247 632 L247 579 Z "/>
<glyph glyph-name="uniE00C" unicode="" d="M64 129 Q91 129 110 110 Q129 91 129 64 Q129 38 110 19 Q91 0 64 0 Q38 0 19 19 Q0 38 0 64 Q0 91 19 110 Q38 129 64 129 Z "/>
<glyph glyph-name="uniE00F" unicode="" horiz-adv-x="1779" d="M736 716 L736 24 Q736 -95 664 -164 Q588 -239 452 -239 L353 -239 Q222 -239 146 -170 Q69 -101 69 24 L69 203 L131 253 L191 253 L191 35 Q191 -54 237 -97 Q268 -125 319 -133 Q343 -137 403 -137 Q462 -137 486 -133 Q541 -123 570 -95 Q614 -54 614 35 L614 716 L736 716 Z M1003 716 L1003 127 Q1003 119 1009 111 Q1017 102 1029 102 L1201 102 Q1212 102 1220 110 Q1226 116 1226 127 L1226 460 L1348 460 L1348 110 Q1348 71 1322 38 Q1289 0 1240 0 L990 0 Q949 0 917 29 Q881 62 881 110 L881 716 L1003 716 Z M1710 460 L1710 24 Q1710 -100 1634 -168 Q1585 -213 1507 -231 Q1471 -238 1433 -238 Q1419 -238 1397 -236 L1349 -175 L1349 -132 Q1380 -137 1411 -137 Q1422 -137 1433 -136 Q1513 -128 1549 -89 Q1588 -49 1588 35 L1588 460 L1710 460 Z M1039 -73 Q1066 -73 1085 -92 Q1104 -111 1104 -138 Q1104 -165 1085 -184 Q1066 -203 1039 -203 Q1012 -203 993 -184 Q974 -165 974 -138 Q974 -111 993 -92 Q1012 -73 1039 -73 Z M1191 -73 Q1218 -73 1237 -92 Q1256 -111 1256 -138 Q1256 -165 1237 -184 Q1218 -203 1191 -203 Q1164 -203 1145.5 -184 Q1127 -165 1127 -138 Q1127 -111 1145.5 -92 Q1164 -73 1191 -73 Z "/>
<glyph glyph-name="uniE010" unicode="" horiz-adv-x="618" d="M316 685 Q309 686 309 697 Q309 704 313 709 L314 709 Q313 706 313 703 Q313 694 318 693 Q319 693 320 693 Q322 693 323 695 Q324 697 324 700 Q324 703 323 709 L326 713 L327 713 Q329 706 329 696 Q331 694 332 694 Q334 694 336 696 Q337 697 337 698 Q337 700 335 704 Q333 709 333 711 Q333 715 336 716 Q337 714 339 709 Q342 703 342 699 Q342 698 342 697 Q341 687 331 687 Q327 687 324 690 Q322 685 317 685 L316 685 Z M217 659 L214 661 Q246 676 255 688 Q243 695 242 701 Q241 706 246.5 710.5 Q252 715 259 715 Q262 715 264 714 Q267 712 267 706 Q267 699 263 691 L270 689 L267 683 L259 686 Q247 671 217 659 Z M500 243 Q529 247 569 271 L573 268 L564 234 Q520 205 464 205 Q411 205 396 236 Q387 207 360 207 Q334 207 326 234 Q300 206 283.5 196.5 Q267 187 248 187 Q238 187 227 190 L227 146 Q227 111 267 111 Q274 111 281 112 Q324 119 411 151 Q462 170 473 170 Q492 170 492 150 Q492 149 492 147 Q484 114 454 92 L450 98 Q474 118 474 133 Q474 135 473 137 Q472 140 466 140 Q461 140 454 138 L351 101 Q292 81 262 82 Q239 83 228 96 Q232 66 240 58 Q276 41 276 37 Q276 36 275 33 Q268 15 263 14 Q258 14 245 20 Q224 30 209 30 Q203 30 196 28 Q183 25 155 9 Q116 -12 98 -12 Q78 -12 65 8 Q52 28 53 58 Q54 90 71.5 115.5 Q89 141 115 149 L117 149 L118 145 Q97 137 82 111.5 Q67 86 67 59 Q67 16 96 16 Q120 16 162 40 Q195 58 212 61 Q208 73 208 109 L208 197 Q184 212 171 245 Q167 242 155 223 Q118 162 93 162 Q74 162 61.5 180.5 Q49 199 49 227 Q49 230 49 233 Q51 265 68 290 Q85 315 111 324 L113 324 L114 319 Q94 312 78.5 286 Q63 260 63 233 Q63 191 92 191 Q114 191 134 222 L157 256 Q168 272 176 272 Q178 272 179 271 Q184 269 191 255 Q200 238 208 231 L208 346 L151 345 Q104 345 84 351 Q64 357 55 374 Q52 379 52 385 Q52 400 63 415.5 Q74 431 90 439 L140 462 Q162 475 162 497 L161 684 Q161 695 179 713 L180 713 L181 494 Q181 461 208 445 L208 483 Q208 499 227 511 L228 511 Q229 510 229 436 L245 435 Q316 435 386 466 L386 490 Q386 503 405 518 L407 518 L408 476 Q428 487 435 487 Q440 487 440 481 Q440 478 438 470 Q437 466 437 461 Q437 446 450 440 Q481 511 524 515 Q543 516 557 503 Q571 490 571 473 Q571 465 568 457 Q559 435 532 420 Q505 405 474 405 Q459 405 448 410 L436 393 L433 393 Q433 404 438 416 Q422 429 418 455 L408 449 L408 379 L531 382 Q575 383 575 356 Q575 343 564 330 L561 331 L561 334 Q561 353 531 353 L408 350 L408 282 Q408 238 468 238 Q454 259 454 279 Q454 287 456 295 Q462 313 475.5 324.5 Q489 336 505 336 Q535 336 560 313 L557 304 Q538 309 523 309 Q488 309 473 284 Q473 276 482 262.5 Q491 249 500 243 Z M452 515 L448 515 L443 684 Q441 687 441 690 Q441 692 441 693 Q448 711 451 713 L454 713 Q462 702 468 682.5 Q474 663 473 653 L472 653 L462 663 L466 551 Q466 526 452 515 Z M247 702 Q248 701 257 695 Q259 699 259 702 Q259 705 257 706 Q256 707 255 707 Q252 707 247 702 Z M230 530 Q219 530 212 546.5 Q205 563 205 590 Q205 609 208 626 L209 626 L210 623 Q210 616 210 610 Q210 556 230 556 Q237 556 241.5 566 Q246 576 253 606 Q264 652 277 652 Q282 652 282 642 Q282 634 279 617 Q277 605 277 594 Q277 557 295 557 Q297 557 298 557 Q313 557 327 580 Q330 593 330 611 Q330 636 325 657 Q326 660 331.5 669 Q337 678 340 680 L342 680 Q349 664 349 628 L348 588 Q348 585 348 579 Q350 556 374 556 Q397 556 406 577 Q406 590 394 624 Q386 646 384 657 Q382 659 382 662 Q382 666 390 682 L393 682 Q393 681 400 673 Q416 654 416 649 L415 648 L406 651 L422 585 Q422 579 421 573 Q418 555 405 542.5 Q392 530 376 530 Q362 530 350 539.5 Q338 549 334 563 Q323 530 296 530 Q281 530 272.5 546 Q264 562 264 589 Q264 603 266 618 Q263 611 259 589 Q248 530 230 530 Z M251 460 L257 472 Q344 503 374 509 L368 497 Q340 492 303 479 L251 460 Z M546 461 Q540 485 523 485 Q511 485 495 471.5 Q479 458 466 436 Q472 435 478 435 Q498 435 517.5 442.5 Q537 450 546 461 Z M208 375 L208 411 Q173 420 164 456 Q151 437 109 422 Q75 410 70 398 Q75 384 96.5 379 Q118 374 169 374 L208 375 Z M229 406 L229 375 L386 379 L386 437 Q322 406 244 406 L229 406 Z M387 254 Q390 261 390 307 Q390 327 389 350 L227 346 L227 219 Q237 214 249 214 Q284 214 325 262 Q331 268 335 268 Q339 268 342 261 L346 250 Q353 239 366 239 Q380 239 387 254 Z M252 269 L258 280 Q336 310 375 318 L368 306 Q340 301 304 288 L252 269 Z M126 309 L129 309 Q123 292 123 280 Q123 270 127 269 Q128 269 129 269 Q132 269 135 276 L136 276 Q136 275 136 274 Q136 265 132 259 Q128 253 122 254 Q113 255 113 272 Q113 294 126 309 Z M340 175 L354 189 L375 170 L354 148 L340 163 L325 148 L306 170 L325 189 L340 175 Z M536 165 Q552 165 562 150 Q572 135 572 111 Q572 75 550 43 Q533 18 509.5 2.5 Q486 -13 464 -13 Q460 -13 456 -12 Q438 -9 427 4 Q416 17 416 37 Q416 69 441 91 L445 85 Q431 72 431 54 Q431 41 438 30.5 Q445 20 455 18 Q459 17 464 17 Q488 17 512.5 36 Q537 55 551 85 Q546 88 530 91 Q516 93 511 95 Q498 102 498 116 Q498 124 502 135 Q515 165 536 165 Z M517 127 Q517 122 535 120 Q548 118 553 116 Q541 136 532 138 Q517 138 517 127 Z M117 93 Q112 93 112 102 Q112 112 121 112 Q128 112 133 101 Q136 117 147 117 Q155 117 155 109 Q155 104 152 98 L151 98 Q151 104 147 104 Q140 104 138 77 L136 75 Q136 82 131.5 89 Q127 96 123 96 Q120 93 117 93 Z M335 51 L335 53 Q340 51 346 51 Q357 51 365 58 Q352 64 346 64 Q343 64 341 63 L339 64 Q339 67 343.5 71 Q348 75 352 75 L354 75 L376 69 Q383 68 383 67 Q383 66 382 64 Q374 45 353 45 Q343 45 335 51 Z M386 22 L394 29 Q399 22 399 13 Q399 11 399 10 Q397 -1 386 -1 Q379 -1 376 5 Q372 -1 365 -1 Q358 -1 354 5 Q342 -2 319 -2 Q306 -2 292 0 L292 2 L304 2 Q346 2 358 19 L360 19 Q360 10 367 10 Q374 10 375 21 L376 21 Q379 10 388 10 L390 10 Q390 20 386 22 Z "/>
<glyph glyph-name="uniE015" unicode="" horiz-adv-x="689" d="M191 174 L191 35 Q191 -36 219 -77 Q251 -121 319 -133 Q343 -137 402 -137 Q461 -137 486 -133 Q535 -124 564 -100 Q604 -66 611 0 L549 0 L497 64 L497 102 L773 102 L773 0 L735 0 Q727 -125 635 -188 Q563 -239 452 -239 L353 -239 Q227 -239 152 -174 Q69 -106 69 24 L69 125 L131 174 L191 174 Z "/>
<glyph glyph-name="uniE016" unicode="" horiz-adv-x="689" d="M191 174 L191 35 Q191 -36 219 -77 Q251 -121 319 -133 Q343 -137 402 -137 Q461 -137 486 -133 Q535 -124 564 -100 Q604 -66 611 0 L549 0 L497 64 L497 102 L773 102 L773 0 L735 0 Q727 -125 635 -188 Q563 -239 452 -239 L353 -239 Q227 -239 152 -174 Q69 -106 69 24 L69 125 L131 174 L191 174 Z M323 -297 Q350 -297 369 -316 Q388 -335 388 -362 Q388 -389 369 -408 Q350 -427 323 -427 Q296 -427 277 -408 Q258 -389 258 -362 Q258 -335 277 -316 Q296 -297 323 -297 Z M475 -297 Q502 -297 521 -316 Q540 -335 540 -362 Q540 -389 521 -408 Q502 -427 475 -427 Q449 -427 430 -408 Q411 -389 411 -362 Q411 -335 430 -316 Q449 -297 475 -297 Z "/>
<glyph glyph-name="uniE017" unicode="" horiz-adv-x="660" d="M167 471 Q175 472 183 472 Q207 472 237 463 L237 411 Q215 416 201 416 Q193 416 187 415 Q171 411 164 400 Q156 388 156 369 Q156 348 166 337 Q178 320 202 320 L269 320 L269 296 L246 267 L69 267 L69 320 L109 320 Q92 346 92 378 Q92 408 106 433 Q126 464 167 471 Z M214 174 L214 35 Q214 -36 242 -77 Q274 -121 342 -133 Q366 -137 425 -137 Q484 -137 509 -133 Q558 -124 587 -100 Q627 -66 634 0 L572 0 L520 64 L520 102 L794 102 L794 0 L758 0 Q750 -125 658 -188 Q586 -239 475 -239 L376 -239 Q250 -239 175 -174 Q92 -106 92 24 L92 125 L154 174 L214 174 Z "/>
<glyph glyph-name="uniE018" unicode="" horiz-adv-x="959" d="M912 460 L912 117 Q912 107 911 102 L963 102 L963 0 L929 0 L891 41 L888 41 Q857 0 804 0 L244 0 Q180 0 133 41 Q69 94 69 180 L69 338 L131 388 L191 388 L191 180 Q191 145 215 123 Q238 102 268 102 L762 102 Q775 102 784 111 Q790 119 790 130 L790 460 L912 460 Z "/>
<glyph glyph-name="uniE019" unicode="" horiz-adv-x="345" d="M298 460 L298 117 L298 102 L349 102 L349 0 L314 0 L277 41 L275 41 Q241 0 190 0 L-3 0 L-3 102 L148 102 Q162 102 168 110 Q177 118 177 130 L177 460 L298 460 Z "/>
<glyph glyph-name="uniE01F" unicode="" horiz-adv-x="808" d="M158 673 L203 673 Q217 673 243 654.5 Q269 636 286 613 Q326 560 336 481 Q337 473 337 456 Q339 388 304 346 Q289 326 257 310 Q225 297 182 297 Q144 297 113 308 Q81 320 60 345 Q25 385 27 457 Q27 466 29 484 Q41 575 87 626 Q102 643 124.5 658 Q147 673 158 673 Z M660 673 L264 0 L166 0 L563 673 L660 673 Z M187 607 L177 607 Q149 596 126 545 Q109 505 109 461 Q109 456 109 454 Q109 412 125 393 Q145 365 182 365 Q208 365 229 380 Q255 402 255 459 Q255 508 236 547 Q216 594 187 607 Z M605 403 L647 403 Q672 398 691 364 Q701 344 710 312 L785 0 L694 0 L627 303 L559 0 L468 0 L543 312 Q552 348 564 365 Q580 399 605 403 Z "/>
<glyph glyph-name="uniE020" unicode="" horiz-adv-x="662" d="M517 673 L121 0 L23 0 L419 673 L517 673 Z M136 673 L136 306 L92 270 L44 270 L44 673 L136 673 Z M460 403 L503 403 Q527 398 546 364 Q556 344 565 312 L640 0 L550 0 L481 303 L414 0 L324 0 L399 312 Q405 341 418 365 Q436 399 460 403 Z "/>
<glyph glyph-name="uniE021" unicode="" horiz-adv-x="666" d="M517 673 L121 0 L23 0 L419 673 L517 673 Z M133 673 L133 306 L88 270 L40 270 L40 673 L133 673 Z M536 413 Q581 414 638 396 L638 326 Q602 337 572 337 Q535 337 510 321 Q464 295 464 228 L464 36 L420 0 L372 0 L372 243 Q372 318 406 359 Q434 395 484 407 Q499 411 536 413 Z "/>
<glyph glyph-name="uniE022" unicode="" horiz-adv-x="645" d="M517 673 L121 0 L23 0 L419 673 L517 673 Z M129 673 L129 306 L86 270 L37 270 L37 673 L129 673 Z M501 417 Q512 418 523 418 Q562 418 603 404 L603 345 Q580 353 555 353 Q543 353 531 351 Q479 343 479 299 Q478 277 495 263 Q512 249 540 249 L595 249 L595 225 L564 193 L552 193 Q517 193 491 174 Q464 155 464 123 Q464 97 481 82 Q501 64 541 64 L624 64 L624 40 L593 0 L511 0 Q448 0 411 32 Q372 66 372 117 Q372 152 394 180 Q410 201 435 214 Q412 234 403 252 Q390 277 390 305 Q390 311 391 316 Q394 351 415 375 Q445 412 501 417 Z "/>
<glyph glyph-name="uniE023" unicode="" horiz-adv-x="858" d="M517 673 L121 0 L23 0 L419 673 L517 673 Z M136 673 L136 306 L92 270 L44 270 L44 673 L136 673 Z M506 404 L506 271 Q520 268 533 268 Q561 268 576 278 Q592 291 592 321 L592 406 L667 406 L667 318 Q665 292 662 278 Q692 269 707 269 Q712 269 717 270 Q742 270 752 281 Q764 291 764 321 L764 406 L837 406 L837 310 Q837 276 829 255 Q821 235 806 223 Q777 200 730 200 Q702 200 673.5 206.5 Q645 213 632 223 Q600 200 560 200 Q544 200 506 206 L506 36 L462 0 L414 0 L414 404 L506 404 Z "/>
<glyph glyph-name="uniE024" unicode="" horiz-adv-x="781" d="M341 673 L266 362 Q259 331 247 310 Q228 275 204 270 L161 270 Q137 274 120 308 Q108 329 100 362 L25 673 L115 673 L183 370 L251 673 L341 673 Z M638 673 L242 0 L145 0 L541 673 L638 673 Z M579 403 L622 403 Q646 398 665 364 Q678 337 684 312 L759 0 L668 0 L601 303 L533 0 L442 0 L518 312 Q527 347 538 365 Q554 399 579 403 Z "/>
<glyph glyph-name="uniE025" unicode="" horiz-adv-x="858" d="M137 673 L137 541 Q146 539 165 539 Q196 539 207 549 Q223 560 223 591 L223 676 L298 676 L298 588 Q298 570 294 548 Q320 539 348 539 Q374 541 383 551 Q395 560 395 591 L395 676 L468 676 L468 580 Q468 545 460 525 Q453 508 437 493 Q410 470 361 470 Q332 470 304 476.5 Q276 483 263 493 Q231 470 191 470 Q175 470 137 476 L137 306 L93 270 L45 270 L45 673 L137 673 Z M713 673 L317 0 L219 0 L615 673 L713 673 Z M657 403 L700 403 Q724 398 743 364 Q756 337 762 312 L837 0 L746 0 L679 303 L611 0 L520 0 L596 312 Q605 347 616 365 Q632 399 657 403 Z "/>
<glyph glyph-name="uniE026" unicode="" horiz-adv-x="839" d="M138 673 L138 541 Q147 539 166 539 Q197 539 208 549 Q224 560 224 591 L224 676 L299 676 L299 588 Q299 570 295 548 Q321 539 349 539 Q375 541 384 551 Q396 560 396 591 L396 676 L469 676 L469 580 Q469 545 461 525 Q454 508 438 493 Q411 470 362 470 Q333 470 305 476.5 Q277 483 264 493 Q232 470 192 470 Q176 470 138 476 L138 306 L94 270 L46 270 L46 673 L138 673 Z M711 673 L314 0 L217 0 L613 673 L711 673 Z M694 417 Q705 418 717 418 Q757 418 796 404 L796 345 Q774 353 748 353 Q736 353 725 351 Q674 343 672 299 Q671 277 688 263 Q705 249 733 249 L789 249 L789 225 L757 193 L745 193 Q712 193 684 174 Q658 155 658 123 Q658 98 674 82 Q695 64 734 64 L818 64 L818 40 L787 0 L705 0 Q641 0 604 32 Q566 65 566 117 Q566 151 587 180 Q603 202 629 214 Q607 231 597 252 Q584 275 584 304 Q584 310 585 316 Q588 350 608 375 Q638 412 694 417 Z "/>
<glyph glyph-name="uniE027" unicode="" horiz-adv-x="881" d="M212 683 Q257 684 314 666 L314 595 Q279 606 248 606 Q211 606 186 591 Q140 563 140 498 L140 305 L96 270 L48 270 L48 513 Q48 584 82 629 Q111 664 160 676 Q180 681 212 683 Z M547 673 L150 0 L53 0 L449 673 L547 673 Z M532 404 L532 271 Q546 268 559 268 Q587 268 602 278 Q618 290 618 321 L618 406 L693 406 L693 318 Q691 291 689 278 Q718 269 734 269 Q739 269 744 270 Q768 270 778 281 Q790 291 790 321 L790 406 L863 406 L863 310 Q863 276 855 255 Q847 235 832 223 Q803 200 755 200 Q728 200 699.5 207 Q671 214 658 223 Q626 200 586 200 Q572 200 532 206 L532 36 L488 0 L440 0 L440 404 L532 404 Z "/>
<glyph glyph-name="uniE028" unicode="" d="M64 129 Q91 129 110 110 Q129 91 129 64 Q129 38 110 19 Q91 0 64 0 Q38 0 19 19 Q0 38 0 64 Q0 91 19 110 Q38 129 64 129 Z "/>
<glyph glyph-name="uniE030" unicode="" horiz-adv-x="959" d="M912 460 L912 117 Q912 107 911 102 L963 102 L963 0 L929 0 L891 41 L888 41 Q857 0 804 0 L244 0 Q180 0 133 41 Q69 94 69 180 L69 338 L131 388 L191 388 L191 180 Q191 145 215 123 Q238 102 268 102 L762 102 Q775 102 784 111 Q790 119 790 130 L790 460 L912 460 Z "/>
<glyph glyph-name="uniE031" unicode="" horiz-adv-x="345" d="M298 460 L298 117 L298 102 L349 102 L349 0 L314 0 L277 41 L275 41 Q241 0 190 0 L-3 0 L-3 102 L148 102 Q162 102 168 110 Q177 118 177 130 L177 460 L298 460 Z "/>
<glyph glyph-name="uniE032" unicode="" horiz-adv-x="367" d="M298 460 L298 110 Q298 71 272 38 Q239 0 190 0 L-3 0 L-3 102 L151 102 Q162 102 170 110 Q177 117 177 127 L177 460 L298 460 Z "/>
<glyph glyph-name="uniE033" unicode="" horiz-adv-x="1000" d="M765 472 Q858 472 922 410 Q986 346 986 247 Q986 166 941 102 L1004 102 L1004 0 L860 0 Q819 0 802 2.5 Q785 5 767 13 L762 13 Q744 5 726.5 2.5 Q709 0 667 0 L264 0 Q191 0 142 51 Q89 102 89 180 L89 338 L151 388 L211 388 L211 180 Q211 148 231 128 Q252 102 288 102 L588 102 Q543 166 543 247 Q543 343 604 406 Q667 472 765 472 Z M764 370 Q717 370 691 333 Q664 298 664 238 Q664 181 693 143 Q720 108 764 103 Q815 108 843 153 Q865 189 865 238 Q865 303 833 338 Q807 370 764 370 Z "/>
<glyph glyph-name="uniE034" unicode="" horiz-adv-x="614" d="M372 472 Q462 472 523 416 Q594 351 594 247 Q594 165 549 102 L618 102 L618 0 L468 0 Q427 0 409.5 2.5 Q392 5 374 13 L369 13 Q352 5 334 2.5 Q316 0 275 0 L-3 0 L-3 102 L196 102 Q151 162 151 247 Q151 324 190 380 Q220 423 268 447.5 Q316 472 372 472 Z M372 370 Q321 370 294 327 Q271 291 272 238 Q272 181 300 143 Q327 108 372 103 Q423 108 450 153 Q472 189 472 238 Q473 300 443 337 Q416 370 372 370 Z "/>
<glyph glyph-name="uniE035" unicode="" horiz-adv-x="641" d="M385 472 Q469 472 525 427 Q586 375 586 287 L586 110 Q586 69 559 37 Q527 0 478 0 L-3 0 L-3 102 L198 102 Q175 131 162 171 Q151 209 151 247 Q151 335 202 394 Q267 472 385 472 Z M385 370 Q320 370 291 319 Q272 287 272 238 Q272 171 314 133 Q348 102 403 102 L439 102 Q464 102 464 127 L464 287 Q464 328 436 353 Q414 370 385 370 Z "/>
<glyph glyph-name="uniE036" unicode="" horiz-adv-x="764" d="M533 472 Q610 472 664 435 Q736 383 736 287 L736 102 L768 102 L768 0 L735 0 Q728 -112 652 -175 Q577 -239 452 -239 L353 -239 Q215 -239 139 -162 Q69 -93 69 24 L69 135 L131 185 L191 185 L191 35 Q191 -28 215 -70 Q245 -118 319 -132 Q343 -136 402 -136 Q461 -136 486 -132 Q532 -124 561 -102 Q604 -68 611 0 L527 0 Q418 0 353 78 Q301 143 301 246 Q301 340 361 405 Q428 472 533 472 Z M533 370 Q485 370 456 338 Q422 304 422 235 Q422 179 451 144 Q483 102 545 102 L614 102 L614 287 Q614 326 587 350 Q564 370 533 370 Z "/>
<glyph glyph-name="uniE041" unicode="" horiz-adv-x="1124" d="M1055 460 L1055 110 Q1055 71 1028 37 Q994 0 946 0 L735 0 Q727 -121 638 -186 Q565 -239 452 -239 L353 -239 Q231 -239 155 -177 Q69 -107 69 24 L69 125 L131 174 L191 174 L191 35 Q191 -41 224 -82 Q254 -121 319 -133 Q343 -137 402 -137 Q461 -137 486 -133 Q535 -124 563 -101 Q604 -68 611 0 L549 0 L497 64 L497 102 L908 102 Q919 102 926 109 Q933 116 933 127 L933 460 L1055 460 Z M828 -73 Q855 -73 874 -92 Q893 -111 893 -138 Q893 -165 874 -184 Q855 -203 828 -203 Q802 -203 783 -184 Q764 -165 764 -138 Q764 -111 783 -92 Q802 -73 828 -73 Z M980 -73 Q1007 -73 1026 -92 Q1045 -111 1045 -138 Q1045 -165 1026 -184 Q1007 -203 980 -203 Q953 -203 934 -184 Q915 -165 915 -138 Q915 -111 934 -92 Q953 -73 980 -73 Z M904 -203 Q929 -203 946.5 -220.5 Q964 -238 964 -263 Q964 -288 946.5 -305.5 Q929 -323 904 -323 Q879 -323 862 -305.5 Q845 -288 845 -263 Q845 -238 862 -220.5 Q879 -203 904 -203 Z "/>
<glyph glyph-name="uniE042" unicode="" horiz-adv-x="1102" d="M1055 460 L1055 117 Q1055 107 1054 102 L1106 102 L1106 0 L1067 0 L1034 41 L1031 41 Q998 0 946 0 L735 0 Q727 -119 642 -182 Q568 -239 452 -239 L353 -239 Q227 -239 152 -175 Q69 -105 69 24 L69 125 L131 174 L191 174 L191 35 Q191 -39 222 -81 Q253 -121 319 -133 Q343 -137 402 -137 Q461 -137 486 -133 Q535 -124 564 -100 Q604 -66 611 0 L549 0 L497 64 L497 102 L904 102 Q917 102 925 110 Q933 118 933 130 L933 460 L1055 460 Z M838 -73 Q865 -73 884 -92 Q903 -111 903 -138 Q903 -165 884 -184 Q865 -203 838 -203 Q811 -203 792 -184 Q773 -165 773 -138 Q773 -111 792 -92 Q811 -73 838 -73 Z M990 -73 Q1017 -73 1036 -92 Q1055 -111 1055 -138 Q1055 -165 1036 -184 Q1017 -203 990 -203 Q964 -203 945 -184 Q926 -165 926 -138 Q926 -111 945 -92 Q964 -73 990 -73 Z M915 -203 Q939 -203 956.5 -220.5 Q974 -238 974 -263 Q974 -288 956.5 -305.5 Q939 -323 915 -323 Q890 -323 872.5 -305.5 Q855 -288 855 -263 Q855 -238 872.5 -220.5 Q890 -203 915 -203 Z "/>
<glyph glyph-name="uniE043" unicode="" horiz-adv-x="1124" d="M1055 460 L1055 110 Q1055 71 1028 37 Q994 0 946 0 L735 0 Q727 -121 638 -186 Q565 -239 452 -239 L353 -239 Q231 -239 155 -177 Q69 -107 69 24 L69 125 L131 174 L191 174 L191 35 Q191 -41 224 -82 Q254 -121 319 -133 Q343 -137 402 -137 Q461 -137 486 -133 Q535 -124 563 -101 Q604 -68 611 0 L549 0 L497 64 L497 102 L908 102 Q919 102 926 109 Q933 116 933 127 L933 460 L1055 460 Z M828 -73 Q855 -73 874 -92 Q893 -111 893 -138 Q893 -165 874 -184 Q855 -203 828 -203 Q802 -203 783 -184 Q764 -165 764 -138 Q764 -111 783 -92 Q802 -73 828 -73 Z M980 -73 Q1006 -73 1025 -92 Q1044 -111 1044 -138 Q1044 -165 1025 -184 Q1006 -203 980 -203 Q953 -203 934 -184 Q915 -165 915 -138 Q915 -111 934 -92 Q953 -73 980 -73 Z M904 -203 Q929 -203 946.5 -220.5 Q964 -238 964 -263 Q964 -288 946.5 -305.5 Q929 -323 904 -323 Q879 -323 862 -305.5 Q845 -288 845 -263 Q845 -238 862 -220.5 Q879 -203 904 -203 Z M323 -297 Q350 -297 369 -316 Q388 -335 388 -362 Q388 -389 369 -408 Q350 -427 323 -427 Q296 -427 277 -408 Q258 -389 258 -362 Q258 -335 277 -316 Q296 -297 323 -297 Z M475 -297 Q502 -297 521 -316 Q540 -335 540 -362 Q540 -389 521 -408 Q502 -427 475 -427 Q449 -427 430 -408 Q411 -389 411 -362 Q411 -335 430 -316 Q449 -297 475 -297 Z "/>
<glyph glyph-name="uniE044" unicode="" horiz-adv-x="1102" d="M1055 460 L1055 117 Q1055 107 1054 102 L1106 102 L1106 0 L1067 0 L1034 41 L1031 41 Q998 0 946 0 L735 0 Q727 -119 642 -182 Q568 -239 452 -239 L353 -239 Q227 -239 152 -175 Q69 -105 69 24 L69 125 L131 174 L191 174 L191 35 Q191 -39 222 -81 Q253 -121 319 -133 Q343 -137 402 -137 Q461 -137 486 -133 Q535 -124 564 -100 Q604 -66 611 0 L549 0 L497 64 L497 102 L904 102 Q917 102 925 110 Q933 118 933 130 L933 460 L1055 460 Z M838 -73 Q865 -73 884 -92 Q903 -111 903 -138 Q903 -165 884 -184 Q865 -203 838 -203 Q811 -203 792 -184 Q773 -165 773 -138 Q773 -111 792 -92 Q811 -73 838 -73 Z M990 -73 Q1017 -73 1036 -92 Q1055 -111 1055 -138 Q1055 -165 1036 -184 Q1017 -203 990 -203 Q964 -203 945 -184 Q926 -165 926 -138 Q926 -111 945 -92 Q964 -73 990 -73 Z M919 -203 Q944 -203 961.5 -220.5 Q979 -238 979 -263 Q979 -288 961.5 -305.5 Q944 -323 919 -323 Q894 -323 876.5 -305.5 Q859 -288 859 -263 Q859 -238 876.5 -220.5 Q894 -203 919 -203 Z M323 -297 Q350 -297 369 -316 Q388 -335 388 -362 Q388 -389 369 -408 Q350 -427 323 -427 Q296 -427 277 -408 Q258 -389 258 -362 Q258 -335 277 -316 Q296 -297 323 -297 Z M475 -297 Q502 -297 521 -316 Q540 -335 540 -362 Q540 -389 521 -408 Q502 -427 475 -427 Q449 -427 430 -408 Q411 -389 411 -362 Q411 -335 430 -316 Q449 -297 475 -297 Z "/>
<glyph glyph-name="uniE045" unicode="" horiz-adv-x="1147" d="M167 471 Q175 472 183 472 Q207 472 237 463 L237 411 Q215 416 201 416 Q193 416 187 415 Q171 411 164 400 Q156 388 156 369 Q156 348 166 337 Q178 320 202 320 L269 320 L269 296 L246 267 L69 267 L69 320 L109 320 Q92 346 92 378 Q92 408 106 433 Q126 464 167 471 Z M1078 460 L1078 110 Q1078 71 1051 37 Q1017 0 969 0 L758 0 Q750 -121 661 -186 Q588 -239 475 -239 L376 -239 Q254 -239 178 -177 Q92 -107 92 24 L92 125 L154 174 L214 174 L214 35 Q214 -41 247 -82 Q277 -121 342 -133 Q366 -137 425 -137 Q484 -137 509 -133 Q558 -124 586 -101 Q627 -68 634 0 L572 0 L520 64 L520 102 L931 102 Q942 102 949 109 Q956 116 956 127 L956 460 L1078 460 Z M851 -73 Q877 -73 896 -92 Q915 -111 915 -138 Q915 -165 896 -184 Q877 -203 851 -203 Q824 -203 805 -184 Q786 -165 786 -138 Q786 -111 805 -92 Q824 -73 851 -73 Z M1003 -73 Q1030 -73 1049 -92 Q1068 -111 1068 -138 Q1068 -165 1049 -184 Q1030 -203 1003 -203 Q977 -203 958 -184 Q939 -165 939 -138 Q939 -111 958 -92 Q977 -73 1003 -73 Z M927 -203 Q952 -203 969 -220.5 Q986 -238 986 -263 Q986 -288 969 -305.5 Q952 -323 927 -323 Q902 -323 884.5 -305.5 Q867 -288 867 -263 Q867 -238 884.5 -220.5 Q902 -203 927 -203 Z "/>
<glyph glyph-name="uniE046" unicode="" horiz-adv-x="1125" d="M167 471 Q175 472 183 472 Q207 472 237 463 L237 411 Q215 416 201 416 Q193 416 187 415 Q171 411 164 400 Q156 388 156 369 Q156 348 166 337 Q178 320 202 320 L269 320 L269 296 L246 267 L69 267 L69 320 L109 320 Q92 346 92 378 Q92 408 106 433 Q126 464 167 471 Z M1078 460 L1078 117 Q1078 107 1077 102 L1129 102 L1129 0 L1090 0 L1057 41 L1054 41 Q1021 0 969 0 L758 0 Q750 -119 665 -182 Q591 -239 475 -239 L376 -239 Q250 -239 175 -175 Q92 -105 92 24 L92 125 L154 174 L214 174 L214 35 Q214 -39 245 -81 Q276 -121 342 -133 Q366 -137 425 -137 Q484 -137 509 -133 Q558 -124 587 -100 Q627 -66 634 0 L572 0 L520 64 L520 102 L927 102 Q940 102 948 110 Q956 118 956 130 L956 460 L1078 460 Z M861 -73 Q888 -73 907 -92 Q926 -111 926 -138 Q926 -165 907 -184 Q888 -203 861 -203 Q834 -203 815 -184 Q796 -165 796 -138 Q796 -111 815 -92 Q834 -73 861 -73 Z M1013 -73 Q1040 -73 1059 -92 Q1078 -111 1078 -138 Q1078 -165 1059 -184 Q1040 -203 1013 -203 Q987 -203 968 -184 Q949 -165 949 -138 Q949 -111 968 -92 Q987 -73 1013 -73 Z M937 -203 Q962 -203 979.5 -220.5 Q997 -238 997 -263 Q997 -288 979.5 -305.5 Q962 -323 937 -323 Q912 -323 894.5 -305.5 Q877 -288 877 -263 Q877 -238 894.5 -220.5 Q912 -203 937 -203 Z "/>
<glyph glyph-name="uniE047" unicode="" horiz-adv-x="1055" d="M933 730 L933 617 L724 490 Q818 456 888 387 Q997 276 1000 110 Q1000 64 969 33 Q939 0 893 0 L756 0 Q748 -117 665 -182 Q589 -239 473 -239 L374 -239 Q239 -239 162 -165 Q90 -94 90 24 L90 125 L151 174 L212 174 L212 35 Q212 -48 250 -89 Q281 -123 340 -133 Q364 -137 423 -137 Q482 -137 506 -133 Q553 -124 581 -104 Q625 -71 632 0 L569 0 L518 64 L518 102 L853 102 Q867 102 873 110 Q878 116 878 128 Q868 242 791 313 Q711 390 586 404 Q578 404 578 412 L578 526 L933 730 Z M168 471 Q176 472 184 472 Q208 472 238 463 L238 411 Q216 416 202 416 Q194 416 188 415 Q172 411 165 400 Q157 388 157 369 Q157 348 167 337 Q179 320 203 320 L270 320 L270 296 L247 267 L70 267 L70 320 L110 320 Q93 346 93 378 Q93 408 107 433 Q127 464 168 471 Z "/>
<glyph glyph-name="uniE048" unicode="" horiz-adv-x="1031" d="M936 730 L936 617 L727 489 Q850 447 926 347 Q961 300 982 240 Q1003 180 1003 124 L1003 113 L1003 102 L1035 102 L1035 0 L1015 0 L982 41 L980 41 Q946 0 895 0 L759 0 Q750 -117 670 -180 Q594 -239 476 -239 L377 -239 Q257 -239 181 -179 Q93 -109 93 24 L93 125 L155 174 L215 174 L215 35 Q215 -39 246 -81 Q277 -121 343 -133 Q367 -137 426 -137 Q485 -137 510 -133 Q557 -125 588 -100 Q628 -68 635 0 L573 0 L521 64 L521 102 L856 102 Q872 102 876 111 Q881 116 881 125 Q881 127 881 128 Q873 218 821 284 Q781 333 720.5 364.5 Q660 396 588 404 Q581 404 581 412 L581 525 L936 730 Z M168 471 Q176 472 184 472 Q208 472 238 463 L238 411 Q216 416 202 416 Q194 416 188 415 Q172 411 165 400 Q157 388 157 369 Q157 348 167 337 Q179 320 203 320 L270 320 L270 296 L247 267 L70 267 L70 320 L110 320 Q93 346 93 378 Q93 408 107 433 Q127 464 168 471 Z "/>
<glyph glyph-name="uniE049" unicode="" horiz-adv-x="1035" d="M558 660 L913 865 L913 780 L558 574 L558 660 Z M913 730 L913 617 L704 490 Q817 450 888 366 Q977 260 980 110 Q980 62 949 33 Q918 0 872 0 L736 0 Q728 -117 645 -182 Q569 -239 453 -239 L354 -239 Q219 -239 142 -165 Q70 -94 70 24 L70 125 L132 174 L192 174 L192 35 Q192 -48 231 -89 Q261 -123 320 -133 Q344 -137 403 -137 Q462 -137 487 -133 Q533 -125 561 -104 Q605 -69 612 0 L550 0 L498 64 L498 102 L833 102 Q860 102 858 128 Q848 239 777 307 Q695 390 565 404 Q558 404 558 412 L558 526 L913 730 Z "/>
<glyph glyph-name="uniE04A" unicode="" horiz-adv-x="1008" d="M558 660 L913 865 L913 780 L558 574 L558 660 Z M913 730 L913 617 L704 489 Q830 445 903 347 Q980 245 980 112 L980 102 L1012 102 L1012 0 L992 0 L959 41 L957 41 Q923 0 872 0 L736 0 Q727 -117 647 -180 Q571 -239 453 -239 L354 -239 Q234 -239 158 -179 Q70 -109 70 24 L70 125 L132 174 L192 174 L192 35 Q192 -39 223 -81 Q254 -121 320 -133 Q344 -137 403 -137 Q462 -137 487 -133 Q534 -125 565 -100 Q605 -68 612 0 L550 0 L498 64 L498 102 L833 102 Q860 102 858 128 Q850 218 798 284 Q759 333 698 364.5 Q637 396 565 404 Q558 404 558 412 L558 525 L913 730 Z "/>
<glyph glyph-name="uniE04B" unicode="" horiz-adv-x="1035" d="M558 660 L913 865 L913 780 L558 574 L558 660 Z M913 730 L913 617 L704 490 Q817 450 888 366 Q977 260 980 110 Q980 62 949 33 Q918 0 872 0 L736 0 Q728 -117 645 -182 Q569 -239 453 -239 L354 -239 Q219 -239 142 -165 Q70 -94 70 24 L70 125 L132 174 L192 174 L192 35 Q192 -48 231 -89 Q261 -123 320 -133 Q344 -137 403 -137 Q462 -137 487 -133 Q533 -125 561 -104 Q605 -69 612 0 L550 0 L498 64 L498 102 L833 102 Q860 102 858 128 Q848 239 777 307 Q695 390 565 404 Q558 404 558 412 L558 526 L913 730 Z M324 -297 Q351 -297 370 -316 Q389 -335 389 -362 Q389 -389 370 -408 Q351 -427 324 -427 Q297 -427 278 -408 Q259 -389 259 -362 Q259 -335 278 -316 Q297 -297 324 -297 Z M476 -297 Q503 -297 522 -316 Q541 -335 541 -362 Q541 -389 522 -408 Q503 -427 476 -427 Q450 -427 431 -408 Q412 -389 412 -362 Q412 -335 431 -316 Q450 -297 476 -297 Z "/>
<glyph glyph-name="uniE04C" unicode="" horiz-adv-x="1008" d="M558 660 L913 865 L913 780 L558 574 L558 660 Z M913 730 L913 617 L704 489 Q830 445 903 347 Q980 245 980 112 L980 102 L1012 102 L1012 0 L992 0 L959 41 L957 41 Q923 0 872 0 L736 0 Q727 -117 647 -180 Q571 -239 453 -239 L354 -239 Q234 -239 158 -179 Q70 -109 70 24 L70 125 L132 174 L192 174 L192 35 Q192 -39 223 -81 Q254 -121 320 -133 Q344 -137 403 -137 Q462 -137 487 -133 Q534 -125 565 -100 Q605 -68 612 0 L550 0 L498 64 L498 102 L833 102 Q860 102 858 128 Q850 218 798 284 Q759 333 698 364.5 Q637 396 565 404 Q558 404 558 412 L558 525 L913 730 Z M324 -297 Q351 -297 370 -316 Q389 -335 389 -362 Q389 -389 370 -408 Q351 -427 324 -427 Q297 -427 278 -408 Q259 -389 259 -362 Q259 -335 278 -316 Q297 -297 324 -297 Z M476 -297 Q503 -297 522 -316 Q541 -335 541 -362 Q541 -389 522 -408 Q503 -427 476 -427 Q450 -427 431 -408 Q412 -389 412 -362 Q412 -335 431 -316 Q450 -297 476 -297 Z "/>
<glyph glyph-name="uniE04D" unicode="" horiz-adv-x="1058" d="M581 660 L936 865 L936 780 L581 574 L581 660 Z M936 730 L936 617 L727 490 Q840 450 911 366 Q1000 260 1003 110 Q1003 62 972 33 Q941 0 895 0 L759 0 Q751 -117 668 -182 Q592 -239 476 -239 L377 -239 Q242 -239 165 -165 Q93 -94 93 24 L93 125 L155 174 L215 174 L215 35 Q215 -48 254 -89 Q284 -123 343 -133 Q367 -137 426 -137 Q485 -137 510 -133 Q556 -125 584 -104 Q628 -69 635 0 L573 0 L521 64 L521 102 L856 102 Q883 102 881 128 Q871 239 800 307 Q718 390 588 404 Q581 404 581 412 L581 526 L936 730 Z M168 471 Q176 472 184 472 Q208 472 238 463 L238 411 Q216 416 202 416 Q194 416 188 415 Q172 411 165 400 Q157 388 157 369 Q157 348 167 337 Q179 320 203 320 L270 320 L270 296 L247 267 L70 267 L70 320 L110 320 Q93 346 93 378 Q93 408 107 433 Q127 464 168 471 Z "/>
<glyph glyph-name="uniE04E" unicode="" horiz-adv-x="1031" d="M581 660 L936 865 L936 780 L581 574 L581 660 Z M936 730 L936 617 L727 489 Q853 445 926 347 Q1003 245 1003 112 L1003 102 L1035 102 L1035 0 L1015 0 L982 41 L980 41 Q946 0 895 0 L759 0 Q750 -117 670 -180 Q594 -239 476 -239 L377 -239 Q257 -239 181 -179 Q93 -109 93 24 L93 125 L155 174 L215 174 L215 35 Q215 -39 246 -81 Q277 -121 343 -133 Q367 -137 426 -137 Q485 -137 510 -133 Q557 -125 588 -100 Q628 -68 635 0 L573 0 L521 64 L521 102 L856 102 Q883 102 881 128 Q873 218 821 284 Q782 333 721 364.5 Q660 396 588 404 Q581 404 581 412 L581 525 L936 730 Z M168 471 Q176 472 184 472 Q208 472 238 463 L238 411 Q216 416 202 416 Q194 416 188 415 Q172 411 165 400 Q157 388 157 369 Q157 348 167 337 Q179 320 203 320 L270 320 L270 296 L247 267 L70 267 L70 320 L110 320 Q93 346 93 378 Q93 408 107 433 Q127 464 168 471 Z "/>
<glyph glyph-name="uniE051" unicode="" horiz-adv-x="1147" d="M167 471 Q175 472 183 472 Q207 472 237 463 L237 411 Q215 416 201 416 Q193 416 187 415 Q171 411 164 400 Q156 388 156 369 Q156 348 166 337 Q178 320 202 320 L269 320 L269 296 L246 267 L69 267 L69 320 L109 320 Q92 346 92 378 Q92 408 106 433 Q126 464 167 471 Z M1078 460 L1078 110 Q1078 71 1051 37 Q1017 0 969 0 L758 0 Q750 -121 661 -186 Q588 -239 475 -239 L376 -239 Q254 -239 178 -177 Q92 -107 92 24 L92 125 L154 174 L214 174 L214 35 Q214 -41 247 -82 Q277 -121 342 -133 Q366 -137 425 -137 Q484 -137 509 -133 Q558 -124 586 -101 Q627 -68 634 0 L572 0 L520 64 L520 102 L931 102 Q942 102 949 109 Q956 116 956 127 L956 460 L1078 460 Z M851 -73 Q877 -73 896 -92 Q915 -111 915 -138 Q915 -165 896 -184 Q877 -203 851 -203 Q824 -203 805 -184 Q786 -165 786 -138 Q786 -111 805 -92 Q824 -73 851 -73 Z M1003 -73 Q1029 -73 1048 -92 Q1067 -111 1067 -138 Q1067 -165 1048 -184 Q1029 -203 1003 -203 Q976 -203 957 -184 Q938 -165 938 -138 Q938 -111 957 -92 Q976 -73 1003 -73 Z "/>
<glyph glyph-name="uniE052" unicode="" horiz-adv-x="1125" d="M167 471 Q175 472 183 472 Q207 472 237 463 L237 411 Q215 416 201 416 Q193 416 187 415 Q171 411 164 400 Q156 388 156 369 Q156 348 166 337 Q178 320 202 320 L269 320 L269 296 L246 267 L69 267 L69 320 L109 320 Q92 346 92 378 Q92 408 106 433 Q126 464 167 471 Z M1078 460 L1078 117 Q1078 107 1077 102 L1129 102 L1129 0 L1090 0 L1057 41 L1054 41 Q1021 0 969 0 L758 0 Q750 -119 665 -182 Q591 -239 475 -239 L376 -239 Q250 -239 175 -175 Q92 -105 92 24 L92 125 L154 174 L214 174 L214 35 Q214 -39 245 -81 Q276 -121 342 -133 Q366 -137 425 -137 Q484 -137 509 -133 Q558 -124 587 -100 Q627 -66 634 0 L572 0 L520 64 L520 102 L927 102 Q940 102 948 110 Q956 118 956 130 L956 460 L1078 460 Z M861 -73 Q888 -73 907 -92 Q926 -111 926 -138 Q926 -165 907 -184 Q888 -203 861 -203 Q834 -203 815 -184 Q796 -165 796 -138 Q796 -111 815 -92 Q834 -73 861 -73 Z M1013 -73 Q1040 -73 1059 -92 Q1078 -111 1078 -138 Q1078 -165 1059 -184 Q1040 -203 1013 -203 Q987 -203 968 -184 Q949 -165 949 -138 Q949 -111 968 -92 Q987 -73 1013 -73 Z "/>
<glyph glyph-name="uniE053" unicode="" horiz-adv-x="696" d="M683 674 L683 570 Q613 570 555 527 Q515 496 476 441 L431 371 Q372 476 330 514 Q278 561 214 565 L214 50 L152 0 L92 0 L92 674 L203 674 Q276 674 333 644 Q376 618 430 551 Q490 624 536 649 Q566 665 594 669.5 Q622 674 683 674 Z "/>
<glyph glyph-name="uniE054" unicode="" horiz-adv-x="640" d="M473 629 L473 481 L136 102 L614 102 L614 62 L564 0 L122 0 Q39 0 22 70 Q18 84 18 96 Q18 144 68 196 L473 629 Z "/>
<glyph glyph-name="&amp;#x221e;" unicode="∞" horiz-adv-x="738" d="M368 793 Q430 793 468 753 Q502 716 502 658 Q502 631 489 602 Q473 570 439 544 Q558 481 619 399 Q694 300 693 168 Q692 108 666.5 49 Q641 -10 597 -53 Q508 -140 363 -140 Q352 -140 342 -140 L310 -101 L310 -73 Q441 -73 516 -10 Q594 59 594 170 Q594 268 543 340 Q515 380 475.5 412.5 Q436 445 364 485 Q259 423 205 360 Q139 287 140 206 Q140 152 163 111 Q188 69 228 53 L228 25 L201 -11 Q133 16 95 66 Q52 125 47 207 Q47 213 47 216 Q47 313 106 392 Q138 435 179 468 Q220 501 294 542 Q265 566 248 596 Q232 624 232 660 Q232 706 260 743 Q300 793 368 793 Z M368 713 Q348 713 334.5 698.5 Q321 684 321 662 Q321 659 321 655 Q325 615 368 591 Q412 615 415 655 Q415 658 415 660 Q415 683 401.5 698 Q388 713 368 713 Z M367 391 Q417 391 448 366 Q489 334 489 279 L489 120 Q489 55 439 13 Q410 -11 369 -21 Q347 -25 325 -25 Q313 -25 301 -24 L271 13 L271 41 Q301 39 306 39 Q314 39 322 40 Q369 43 393 66 Q409 83 414 107 Q389 100 361 100 Q356 100 349 100 Q304 106 275 132 Q226 177 226 248 Q226 310 263 350 Q302 391 367 391 Z M365 317 Q341 317 324 300 Q307 282 307 245 Q307 206 326 187 Q340 171 364 169 Q368 169 372 169 Q391 169 408 175 L408 273 Q408 297 393 307 Q382 317 365 317 Z "/>
<glyph glyph-name="&amp;#xea26;" unicode="" horiz-adv-x="738" d="M368 793 Q430 793 468 753 Q502 716 502 658 Q502 631 489 602 Q473 570 439 544 Q558 481 619 399 Q694 300 693 168 Q692 108 666.5 49 Q641 -10 597 -53 Q508 -140 363 -140 Q352 -140 342 -140 L310 -101 L310 -73 Q441 -73 516 -10 Q594 59 594 170 Q594 268 543 340 Q515 380 475.5 412.5 Q436 445 364 485 Q259 423 205 360 Q139 287 140 206 Q140 152 163 111 Q188 69 228 53 L228 25 L201 -11 Q133 16 95 66 Q52 125 47 207 Q47 213 47 216 Q47 313 106 392 Q138 435 179 468 Q220 501 294 542 Q265 566 248 596 Q232 624 232 660 Q232 706 260 743 Q300 793 368 793 Z M368 713 Q348 713 334.5 698.5 Q321 684 321 662 Q321 659 321 655 Q325 615 368 591 Q412 615 415 655 Q415 658 415 660 Q415 683 401.5 698 Q388 713 368 713 Z M367 391 Q417 391 448 366 Q489 334 489 279 L489 120 Q489 55 439 13 Q410 -11 369 -21 Q347 -25 325 -25 Q313 -25 301 -24 L271 13 L271 41 Q301 39 306 39 Q314 39 322 40 Q369 43 393 66 Q409 83 414 107 Q389 100 361 100 Q356 100 349 100 Q304 106 275 132 Q226 177 226 248 Q226 310 263 350 Q302 391 367 391 Z M365 317 Q341 317 324 300 Q307 282 307 245 Q307 206 326 187 Q340 171 364 169 Q368 169 372 169 Q391 169 408 175 L408 273 Q408 297 393 307 Q382 317 365 317 Z "/>
<glyph glyph-name="uniFB51" unicode="ﭑ" horiz-adv-x="238" d="M285 900 Q289 890 289 879 Q289 837 248 812 Q221 794 178 794 Q153 794 125 800 Q113 803 84 813 Q48 825 38 825 Q17 825 -19 792 L-51 816 Q-16 883 36 885 Q62 885 86 874 Q108 905 136 926 Q165 949 194 951 Q201 952 207 952 Q235 952 256.5 938 Q278 924 285 900 Z M199 904 Q182 901 168 890 Q148 876 136 858 Q170 847 194 847 Q208 847 220 851 Q241 860 241 878 Q241 882 239 886 Q232 905 208 905 Q204 905 199 904 Z M191 716 L191 127 Q191 117 197 111 Q203 102 216 102 L242 102 L242 0 L177 0 Q136 0 105 29 Q69 62 69 110 L69 716 L191 716 Z "/>
<glyph glyph-name="uniFB57" unicode="ﭗ" horiz-adv-x="959" d="M912 460 L912 117 Q912 107 911 102 L963 102 L963 0 L929 0 L891 41 L888 41 Q857 0 804 0 L244 0 Q180 0 133 41 Q69 94 69 180 L69 338 L131 388 L191 388 L191 180 Q191 145 215 123 Q238 102 268 102 L762 102 Q775 102 784 111 Q790 119 790 130 L790 460 L912 460 Z M415 -74 Q442 -74 461 -92.5 Q480 -111 480 -138 Q480 -165 461 -184 Q442 -203 415 -203 Q389 -203 370 -184 Q351 -165 351 -138 Q351 -111 369.5 -92.5 Q388 -74 415 -74 Z M567 -74 Q594 -74 612.5 -92.5 Q631 -111 631 -138 Q631 -165 612 -184 Q593 -203 567 -203 Q540 -203 521 -184 Q502 -165 502 -138 Q502 -111 521 -92.5 Q540 -74 567 -74 Z M491 -204 Q515 -204 532.5 -221.5 Q550 -239 550 -263 Q550 -288 533 -305.5 Q516 -323 491 -323 Q466 -323 449 -305.5 Q432 -288 432 -263 Q432 -239 449.5 -221.5 Q467 -204 491 -204 Z "/>
<glyph glyph-name="uniFB58" unicode="ﭘ" horiz-adv-x="367" d="M298 460 L298 110 Q298 71 272 38 Q239 0 190 0 L-3 0 L-3 102 L151 102 Q162 102 170 110 Q177 117 177 127 L177 460 L298 460 Z M73 -73 Q100 -73 119 -92 Q138 -111 138 -138 Q138 -165 119 -184 Q100 -203 73 -203 Q47 -203 28 -184 Q9 -165 9 -138 Q9 -111 28 -92 Q47 -73 73 -73 Z M225 -73 Q251 -73 270 -92 Q289 -111 289 -138 Q289 -165 270 -184 Q251 -203 225 -203 Q198 -203 179 -184 Q160 -165 160 -138 Q160 -111 179 -92 Q198 -73 225 -73 Z M149 -203 Q174 -203 191 -220.5 Q208 -238 208 -263 Q208 -288 191 -305.5 Q174 -323 149 -323 Q124 -323 107 -305.5 Q90 -288 90 -263 Q90 -238 107 -220.5 Q124 -203 149 -203 Z "/>
<glyph glyph-name="uniFB59" unicode="ﭙ" horiz-adv-x="345" d="M298 460 L298 117 L298 102 L349 102 L349 0 L314 0 L277 41 L275 41 Q241 0 190 0 L-3 0 L-3 102 L148 102 Q162 102 168 110 Q177 118 177 130 L177 460 L298 460 Z M82 -73 Q109 -73 128 -92 Q147 -111 147 -138 Q147 -165 128 -184 Q109 -203 82 -203 Q56 -203 37 -184 Q18 -165 18 -138 Q18 -111 37 -92 Q56 -73 82 -73 Z M234 -73 Q260 -73 279 -92 Q298 -111 298 -138 Q298 -165 279 -184 Q260 -203 234 -203 Q207 -203 188 -184 Q169 -165 169 -138 Q169 -111 188 -92 Q207 -73 234 -73 Z M158 -203 Q183 -203 200 -220.5 Q217 -238 217 -263 Q217 -288 200 -305.5 Q183 -323 158 -323 Q133 -323 116 -305.5 Q99 -288 99 -263 Q99 -238 116 -220.5 Q133 -203 158 -203 Z "/>
<glyph glyph-name="uniFB67" unicode="ﭧ" horiz-adv-x="959" d="M447 619 L446 513 Q469 542 497 558 Q524 572 550 575 Q556 576 563 576 Q598 576 624 556 Q654 533 654 483 L654 444 Q654 421 639 406 Q623 388 598 388 L356 388 L356 441 L383 441 L383 619 L447 619 Z M557 526 Q530 526 499 503 Q468 479 447 441 L583 441 Q595 441 595 454 L595 485 Q595 507 583 516 Q574 526 557 526 Z M912 460 L912 117 Q912 107 911 102 L963 102 L963 0 L929 0 L891 41 L888 41 Q857 0 804 0 L244 0 Q180 0 133 41 Q69 94 69 180 L69 338 L131 388 L191 388 L191 180 Q191 145 215 123 Q238 102 268 102 L762 102 Q775 102 784 111 Q790 119 790 130 L790 460 L912 460 Z "/>
<glyph glyph-name="uniFB68" unicode="ﭨ" horiz-adv-x="367" d="M93 781 L93 675 Q113 703 143 719 Q171 735 196 736 Q204 737 211 737 Q246 737 271 718 Q301 692 301 645 L301 605 Q301 583 286 568 Q270 550 245 550 L3 550 L3 603 L30 603 L30 781 L93 781 Z M204 688 Q178 688 146 665 Q115 641 94 603 L229 603 Q242 603 242 615 L242 647 Q242 668 230 678 Q218 688 204 688 Z M297 460 L297 110 Q297 71 271 38 Q238 0 189 0 L-4 0 L-4 102 L150 102 Q161 102 169 110 Q176 117 176 127 L176 460 L297 460 Z "/>
<glyph glyph-name="uniFB69" unicode="ﭩ" horiz-adv-x="345" d="M94 781 L94 675 Q114 703 144 719 Q172 735 197 736 Q205 737 212 737 Q247 737 272 718 Q302 692 302 645 L302 605 Q302 583 287 568 Q271 550 246 550 L4 550 L4 603 L31 603 L31 781 L94 781 Z M205 688 Q179 688 147 665 Q116 641 95 603 L230 603 Q243 603 243 615 L243 647 Q243 668 231 678 Q219 688 205 688 Z M298 460 L298 117 L298 102 L349 102 L349 0 L314 0 L277 41 L275 41 Q241 0 190 0 L-3 0 L-3 102 L148 102 Q162 102 168 110 Q177 118 177 130 L177 460 L298 460 Z "/>
<glyph glyph-name="uniFB6B" unicode="ﭫ" horiz-adv-x="1000" d="M765 800 Q789 800 806.5 782.5 Q824 765 824 740 Q824 716 806.5 698.5 Q789 681 765 681 Q740 681 722.5 698 Q705 715 705 740 Q705 765 722.5 782.5 Q740 800 765 800 Z M689 680 Q716 680 734.5 661 Q753 642 753 615 Q753 588 734.5 569.5 Q716 551 689 551 Q662 551 643 570 Q624 589 624 615 Q624 642 643 661 Q662 680 689 680 Z M840 680 Q867 680 886 661 Q905 642 905 615 Q905 589 886 570 Q867 551 840 551 Q814 551 795 570 Q776 589 776 615 Q776 642 795 661 Q814 680 840 680 Z M765 472 Q858 472 922 410 Q986 346 986 247 Q986 166 941 102 L1004 102 L1004 0 L860 0 Q819 0 802 2.5 Q785 5 767 13 L762 13 Q744 5 726.5 2.5 Q709 0 667 0 L264 0 Q191 0 142 51 Q89 102 89 180 L89 338 L151 388 L211 388 L211 180 Q211 148 231 128 Q252 102 288 102 L588 102 Q543 166 543 247 Q543 343 604 406 Q667 472 765 472 Z M764 370 Q717 370 691 333 Q664 298 664 238 Q664 181 693 143 Q720 108 764 103 Q815 108 843 153 Q865 189 865 238 Q865 303 833 338 Q807 370 764 370 Z "/>
<glyph glyph-name="uniFB6C" unicode="ﭬ" horiz-adv-x="641" d="M385 800 Q410 800 427.5 782.5 Q445 765 445 740 Q445 715 427.5 698 Q410 681 385 681 Q360 681 343 698 Q326 715 326 740 Q326 765 343 782.5 Q360 800 385 800 Z M310 680 Q336 680 355 661 Q374 642 374 615 Q374 589 355 570 Q336 551 310 551 Q283 551 264 570 Q245 589 245 615 Q245 642 264 661 Q283 680 310 680 Z M461 680 Q488 680 507 661 Q526 642 526 615 Q526 589 507 570 Q488 551 461 551 Q435 551 416 570 Q397 589 397 615 Q397 642 416 661 Q435 680 461 680 Z M385 472 Q469 472 525 427 Q586 375 586 287 L586 110 Q586 69 559 37 Q527 0 478 0 L-3 0 L-3 102 L198 102 Q175 131 162 171 Q151 209 151 247 Q151 335 202 394 Q267 472 385 472 Z M385 370 Q320 370 291 319 Q272 287 272 238 Q272 171 314 133 Q348 102 403 102 L439 102 Q464 102 464 127 L464 287 Q464 328 436 353 Q414 370 385 370 Z "/>
<glyph glyph-name="uniFB6D" unicode="ﭭ" horiz-adv-x="614" d="M374 800 Q399 800 416 782.5 Q433 765 433 740 Q433 715 416 698 Q399 681 374 681 Q349 681 331.5 698 Q314 715 314 740 Q314 765 331.5 782.5 Q349 800 374 800 Z M298 680 Q325 680 343.5 661 Q362 642 362 615 Q362 588 343.5 569.5 Q325 551 298 551 Q271 551 252.5 569.5 Q234 588 234 615 Q234 642 252.5 661 Q271 680 298 680 Z M449 680 Q476 680 495 661 Q514 642 514 615 Q514 589 495 570 Q476 551 449 551 Q423 551 404 570 Q385 589 385 615 Q385 642 404 661 Q423 680 449 680 Z M372 472 Q462 472 523 416 Q594 351 594 247 Q594 165 549 102 L618 102 L618 0 L468 0 Q427 0 409.5 2.5 Q392 5 374 13 L369 13 Q352 5 334 2.5 Q316 0 275 0 L-3 0 L-3 102 L196 102 Q151 162 151 247 Q151 324 190 380 Q220 423 268 447.5 Q316 472 372 472 Z M372 370 Q321 370 294 327 Q271 291 272 238 Q272 181 300 143 Q327 108 372 103 Q423 108 450 153 Q472 189 472 238 Q473 300 443 337 Q416 370 372 370 Z "/>
<glyph glyph-name="uniFB7B" unicode="ﭻ" horiz-adv-x="659" d="M357 472 L368 472 Q485 472 556 404 Q631 334 631 224 L631 144 L630 102 L663 102 L663 0 L634 0 L610 41 L607 41 Q590 21 569 11 Q547 0 514 0 L318 0 Q246 -2 212 -36 Q178 -68 178 -135 Q178 -195 211 -234 Q250 -280 320 -280 Q334 -280 349 -278 L349 -314 L297 -378 Q241 -378 204.5 -365.5 Q168 -353 134 -322 Q56 -251 56 -137 Q56 -19 123 38 Q196 102 331 102 L484 102 Q509 102 509 127 L509 217 Q509 277 472 319 Q429 365 351 368 Q291 369 196 346 L196 443 Q276 470 357 472 Z M364 -74 Q391 -74 410 -93 Q429 -112 429 -139 Q429 -165 410 -184 Q391 -203 364 -203 Q337 -203 318 -184 Q299 -165 299 -139 Q299 -112 318 -93 Q337 -74 364 -74 Z M516 -74 Q542 -74 561 -93 Q580 -112 580 -139 Q580 -165 561 -184 Q542 -203 516 -203 Q489 -203 470 -184 Q451 -165 451 -139 Q451 -112 470 -93 Q489 -74 516 -74 Z M440 -204 Q465 -204 482 -221.5 Q499 -239 499 -264 Q499 -288 481.5 -305.5 Q464 -323 440 -323 Q416 -323 398.5 -305.5 Q381 -288 381 -264 Q381 -239 398 -221.5 Q415 -204 440 -204 Z "/>
<glyph glyph-name="uniFB7C" unicode="ﭼ" horiz-adv-x="620" d="M287 472 L303 472 Q425 472 499 396 Q565 328 565 224 L565 110 Q565 69 537 36 Q504 0 457 0 L-3 0 L-3 102 L418 102 Q443 102 443 127 L443 217 Q443 277 407 318 Q362 365 285 367 Q279 367 272 367 Q226 367 130 346 L130 443 Q218 469 287 472 Z M195 -74 Q222 -74 241 -92.5 Q260 -111 260 -138 Q260 -165 241 -184 Q222 -203 195 -203 Q168 -203 149 -184 Q130 -165 130 -138 Q130 -111 149 -92.5 Q168 -74 195 -74 Z M347 -74 Q374 -74 392.5 -92.5 Q411 -111 411 -138 Q411 -165 392 -184 Q373 -203 347 -203 Q320 -203 301 -184 Q282 -165 282 -138 Q282 -111 301 -92.5 Q320 -74 347 -74 Z M271 -204 Q295 -204 312.5 -221.5 Q330 -239 330 -263 Q330 -288 313 -305.5 Q296 -323 271 -323 Q246 -323 228.5 -305.5 Q211 -288 211 -263 Q211 -239 228.5 -221.5 Q246 -204 271 -204 Z "/>
<glyph glyph-name="uniFB7D" unicode="ﭽ" horiz-adv-x="593" d="M291 472 L302 472 Q418 472 489 404 Q564 335 564 224 L564 117 L564 102 L597 102 L597 0 L576 0 L543 41 L541 41 Q507 0 456 0 L-4 0 L-4 102 L417 102 Q442 102 442 127 L442 217 Q442 277 405 319 Q363 365 284 368 Q233 369 129 346 L129 443 Q218 471 291 472 Z M194 -74 Q221 -74 240 -92.5 Q259 -111 259 -138 Q259 -165 240 -184 Q221 -203 194 -203 Q167 -203 148 -184 Q129 -165 129 -138 Q129 -111 148 -92.5 Q167 -74 194 -74 Z M346 -74 Q373 -74 391.5 -92.5 Q410 -111 410 -138 Q410 -165 391 -184 Q372 -203 346 -203 Q319 -203 300 -184 Q281 -165 281 -138 Q281 -111 300 -92.5 Q319 -74 346 -74 Z M270 -204 Q294 -204 311.5 -221.5 Q329 -239 329 -263 Q329 -288 312 -305.5 Q295 -323 270 -323 Q245 -323 227.5 -305.5 Q210 -288 210 -263 Q210 -239 227.5 -221.5 Q245 -204 270 -204 Z "/>
<glyph glyph-name="uniFB89" unicode="ﮉ" horiz-adv-x="490" d="M204 781 L204 675 Q227 704 254 719 Q282 735 307 736 Q315 737 322 737 Q357 737 382 718 Q412 692 412 645 L412 605 Q412 583 397 568 Q381 550 356 550 L114 550 L114 603 L141 603 L141 781 L204 781 Z M315 688 Q290 688 258 665 Q224 639 206 603 L341 603 Q353 603 353 615 L353 647 Q353 669 341 678 Q331 688 315 688 Z M233 472 Q334 467 399 406 Q469 339 469 232 L469 136 Q469 113 468 102 L494 102 L494 0 L481 0 L448 41 L445 41 Q437 32 428 24 Q398 0 361 0 L40 0 L40 102 L322 102 Q333 102 340 109 Q347 116 347 127 L347 220 Q347 289 305 331 Q266 370 192 373 Q158 373 141 369 L141 466 Q175 472 220 472 L233 472 Z "/>
<glyph glyph-name="uniFB8B" unicode="ﮋ" horiz-adv-x="396" d="M225 800 Q249 800 266.5 782.5 Q284 765 284 741 Q284 716 267 698.5 Q250 681 225 681 Q200 681 182.5 698.5 Q165 716 165 741 Q165 765 182.5 782.5 Q200 800 225 800 Z M149 680 Q176 680 195 661 Q214 642 214 615 Q214 589 195 570 Q176 551 149 551 Q122 551 103.5 569.5 Q85 588 85 615 Q85 642 103.5 661 Q122 680 149 680 Z M301 680 Q327 680 346 661 Q365 642 365 615 Q365 589 346 570 Q327 551 301 551 Q274 551 255 570 Q236 589 236 615 Q236 642 255 661 Q274 680 301 680 Z M349 460 L349 102 L400 102 L400 0 L348 0 Q341 -108 271 -170 Q224 -212 152 -230 Q112 -238 80 -238 Q65 -238 37 -236 L-12 -175 L-12 -132 Q20 -137 50 -137 Q62 -137 72 -136 Q152 -130 188 -89 Q227 -49 227 35 L227 460 L349 460 Z "/>
<glyph glyph-name="uniFB8D" unicode="ﮍ" horiz-adv-x="396" d="M144 782 L143 676 Q164 705 193 720 Q221 736 246 737 Q254 738 260 738 Q296 738 321 718 Q350 694 350 646 L350 606 Q350 584 336 568 Q321 551 295 551 L52 551 L52 604 L80 604 L80 782 L144 782 Z M254 688 Q228 689 201 669 Q167 646 144 604 L279 604 Q292 604 292 616 L292 648 Q292 669 279 679 Q269 688 254 688 Z M349 460 L349 102 L400 102 L400 0 L348 0 Q341 -108 271 -170 Q220 -215 145 -231 Q113 -238 80 -238 Q65 -238 37 -236 L-12 -175 L-12 -132 Q20 -137 50 -137 Q62 -137 72 -136 Q152 -130 188 -89 Q227 -50 227 35 L227 460 L349 460 Z "/>
<glyph glyph-name="uniFB8F" unicode="ﮏ" horiz-adv-x="940" d="M845 730 L845 617 L636 489 Q760 446 834 348 Q910 247 912 119 Q912 107 911 102 L944 102 L944 0 L924 0 L891 41 L888 41 Q854 0 805 0 L244 0 Q180 0 129 44 Q69 98 69 180 L69 340 L134 393 L191 393 L191 180 Q191 149 212 126 Q234 102 268 102 L765 102 Q779 102 785 110 Q790 116 790 128 Q783 214 733 281 Q693 332 632 364 Q571 396 498 404 Q490 404 490 412 L491 526 L845 730 Z "/>
<glyph glyph-name="uniFB90" unicode="ﮐ" horiz-adv-x="597" d="M473 730 L473 617 L264 490 Q378 449 448 366 Q490 317 515.5 250.5 Q541 184 541 122 Q541 116 541 109 Q539 71 519 45 Q487 0 432 0 L-4 0 L-4 102 L393 102 Q419 102 419 128 Q411 222 350 292 Q311 339 252 368 Q193 397 125 404 Q118 404 118 412 L118 526 L473 730 Z "/>
<glyph glyph-name="uniFB91" unicode="ﮑ" horiz-adv-x="569" d="M474 730 L474 617 L265 489 Q389 445 464 347 Q539 248 541 123 Q541 120 541 116 L541 102 L573 102 L573 0 L554 0 L520 41 L518 41 Q483 0 433 0 L-3 0 L-3 102 L394 102 Q420 102 420 128 Q413 213 359 284 Q320 333 258 365 Q196 397 126 404 Q119 404 119 412 L119 525 L474 730 Z "/>
<glyph glyph-name="uniFB93" unicode="ﮓ" horiz-adv-x="940" d="M490 660 L845 865 L845 780 L490 574 L490 660 Z M845 730 L845 617 L636 489 Q760 446 834 348 Q910 247 912 119 Q912 107 911 102 L944 102 L944 0 L924 0 L891 41 L888 41 Q854 0 805 0 L244 0 Q180 0 129 44 Q69 98 69 180 L69 340 L134 393 L191 393 L191 180 Q191 149 212 126 Q234 102 268 102 L765 102 Q779 102 785 110 Q790 116 790 128 Q783 214 733 281 Q693 332 632 364 Q571 396 498 404 Q490 404 490 412 L491 526 L845 730 Z "/>
<glyph glyph-name="uniFB94" unicode="ﮔ" horiz-adv-x="609" d="M118 660 L473 865 L473 780 L118 574 L118 660 Z M473 730 L473 617 L264 490 Q378 449 448 366 Q490 317 515.5 250.5 Q541 184 541 122 Q541 116 541 109 Q539 71 519 45 Q487 0 432 0 L-4 0 L-4 102 L393 102 Q419 102 419 128 Q411 222 350 292 Q311 339 252 368 Q193 397 125 404 Q118 404 118 412 L118 526 L473 730 Z "/>
<glyph glyph-name="uniFB95" unicode="ﮕ" horiz-adv-x="587" d="M118 660 L473 865 L473 780 L118 574 L118 660 Z M473 730 L473 617 L264 489 Q388 445 463 347 Q538 248 540 123 Q540 120 540 116 L540 102 L572 102 L572 0 L553 0 L519 41 L517 41 Q482 0 432 0 L-4 0 L-4 102 L393 102 Q419 102 419 128 Q412 213 358 284 Q319 333 257 365 Q195 397 125 404 Q118 404 118 412 L118 525 L473 730 Z "/>
<glyph glyph-name="uniFB9F" unicode="ﮟ" horiz-adv-x="783" d="M737 460 L737 102 L787 102 L787 0 L736 0 Q727 -117 647 -180 Q571 -239 453 -239 L354 -239 Q226 -239 150 -173 Q70 -103 70 24 L70 203 L132 253 L192 253 L192 35 Q192 -46 228 -87 Q260 -123 320 -133 Q344 -137 404 -137 Q463 -137 487 -133 Q543 -123 573 -93 Q615 -49 615 35 L615 460 L737 460 Z "/>
<glyph glyph-name="uniFBA5" unicode="ﮥ" horiz-adv-x="536" d="M302 746 Q310 747 318 747 Q344 747 372 738 L372 685 Q351 691 335 691 Q328 691 322 690 Q306 686 299 674 Q291 665 291 643 Q291 623 301 612 Q313 595 337 595 L404 595 L404 571 L381 542 L204 542 L204 595 L244 595 Q227 624 227 653 Q227 685 241 707 Q261 739 302 746 Z M489 487 L489 127 Q489 115 496 109 Q502 102 512 102 L540 102 L540 0 L477 0 Q431 0 394 37 Q337 -10 267 -10 Q188 -10 131 40 Q55 111 55 230 Q55 338 123 409 Q185 474 275 476 Q330 478 386 454 L429 487 L489 487 Z M288 371 Q246 367 218 340 Q176 300 176 229 Q176 165 208 127 Q237 92 286 90 Q290 90 292 90 Q328 90 367 106 L367 358 Q332 371 300 371 L288 371 Z "/>
<glyph glyph-name="uniFBA7" unicode="ﮧ" horiz-adv-x="777" d="M737 460 L737 127 Q737 116 744 109 Q750 102 760 102 L788 102 L788 0 L724 0 Q669 0 638 43 Q615 74 615 110 L615 336 Q515 317 475 214 Q454 157 454 35 L454 0 L395 0 Q280 0 196 45 Q119 85 84 157 Q53 215 53 304 Q53 337 58 372 L170 372 Q168 347 168 326 Q168 255 191 210 Q212 168 252 143.5 Q292 119 342 117 Q348 287 460 380 Q554 460 690 460 L737 460 Z "/>
<glyph glyph-name="uniFBA8" unicode="ﮨ" horiz-adv-x="436" d="M367 460 L367 110 Q367 62 331 29 Q300 0 258 0 L219 0 Q180 -51 180 -87 Q180 -101 189 -110 Q198 -119 213 -119 L280 -119 L280 -196 L191 -196 Q144 -196 117 -167 Q94 -143 94 -105 Q94 -53 135 0 L-4 0 L-4 102 L219 102 Q233 102 240 112 Q245 119 245 127 L245 460 L367 460 Z "/>
<glyph glyph-name="uniFBA9" unicode="ﮩ" horiz-adv-x="527" d="M531 102 L531 0 L503 0 Q493 0 488 -6 Q480 -14 480 -25 L480 -348 L432 -347 Q286 -347 195 -256 Q92 -163 86 0 L-3 0 L-3 102 L197 102 L197 43 Q197 -54 226 -119 Q263 -206 358 -224 L358 -8 Q358 28 381 59 Q414 102 467 102 L531 102 Z "/>
<glyph glyph-name="uniFBAB" unicode="ﮫ" horiz-adv-x="784" d="M487 498 Q582 496 642 458 Q696 422 723 364 Q742 325 749 291 Q756 257 756 202 L756 133 Q756 112 755 102 L788 102 L788 0 L768 0 L734 41 L732 41 Q719 25 700 14 Q676 0 648 0 L402 0 Q359 0 337 11 L333 11 Q311 0 259 0 L106 0 L56 62 L56 102 L197 102 Q181 123 172 153 Q162 182 162 218 Q162 281 195 328 Q223 364 262 380 L262 449 Q321 476 369 487 Q425 498 476 498 L487 498 Z M479 400 Q465 401 451 401 Q407 401 362 392 Q427 383 467 338 Q508 292 508 218 Q508 186 500 156 Q491 127 474 102 L609 102 Q619 102 626 108 Q634 116 634 127 L634 194 Q634 307 584 357 Q549 393 479 400 Z M334 311 Q301 311 280 284 Q261 257 261 214 Q261 177 276 151 Q297 118 334 114 Q372 118 390 150 Q407 177 407 214 Q407 254 390 279 Q369 311 334 311 Z "/>
<glyph glyph-name="uniFBAC" unicode="ﮬ" horiz-adv-x="796" d="M469 499 Q587 497 655 435 Q741 359 741 210 L741 110 Q741 65 707 31 Q676 0 633 0 L390 0 Q338 0 316 11 L312 11 Q290 0 238 0 L-4 0 L-4 102 L176 102 Q159 126 151 153 Q141 182 141 218 Q141 278 171 324 Q196 361 240 380 L240 449 Q357 501 469 499 Z M466 400 Q449 402 430 402 Q387 402 341 392 Q405 383 445 338 Q487 291 487 218 Q487 185 478 156 Q469 125 453 102 L593 102 Q604 102 611 108 Q619 116 619 127 L619 194 Q619 305 570 357 Q533 394 466 400 Z M313 311 Q273 311 253 275 Q239 249 239 214 Q241 174 257 148 Q277 118 313 114 Q348 118 366 145 Q384 171 386 214 Q386 262 364 287 Q343 311 313 311 Z "/>
<glyph glyph-name="uniFBAD" unicode="ﮭ" horiz-adv-x="766" d="M490 497 Q593 491 655 433 Q738 355 738 210 L738 130 L737 102 L770 102 L770 0 L750 0 L716 41 L714 41 Q704 30 689 18 Q663 0 630 0 L380 0 Q338 0 316 11 L312 11 Q290 0 238 0 L-4 0 L-4 102 L176 102 Q160 122 150 154 Q141 184 141 218 Q141 282 174 328 Q200 363 240 380 L240 449 Q348 498 459 498 Q475 498 490 497 Z M474 398 Q453 401 428 401 Q387 401 341 392 Q413 383 454 328 Q487 282 487 218 Q487 186 479 157 Q469 123 453 102 L590 102 Q603 102 609 110 Q616 117 616 127 L616 194 Q616 303 568 354 Q535 390 474 398 Z M313 311 Q284 311 263 290 Q239 263 239 214 Q240 171 260 144 Q280 117 313 114 Q346 117 366 144.5 Q386 172 386 214 Q386 262 363 288 Q343 311 313 311 Z "/>
<glyph glyph-name="uniFBAF" unicode="ﮯ" horiz-adv-x="741" d="M879 102 L879 0 L271 0 Q234 0 212 -16 Q190 -33 190 -62 Q190 -84 205 -97 Q221 -113 249 -113 L686 -113 L686 -153 L637 -215 L228 -215 Q146 -215 102 -162 Q69 -123 69 -65 Q69 7 116 52 Q168 102 254 102 L879 102 Z "/>
<glyph glyph-name="uniFBB1" unicode="ﮱ" horiz-adv-x="736" d="M193 465 Q201 466 209 466 Q235 466 263 457 L263 404 Q242 410 227 410 Q220 410 213 409 Q199 406 190 394 Q182 379 182 363 Q182 344 192 331 Q206 314 229 314 L296 314 L296 290 L272 261 L96 261 L96 314 L135 314 Q119 340 119 371 Q119 406 132 426 Q152 458 193 465 Z M901 102 L901 0 L293 0 Q256 0 234 -16 Q212 -33 212 -62 Q212 -84 227 -97 Q243 -113 271 -113 L708 -113 L708 -153 L659 -215 L250 -215 Q168 -215 124 -162 Q91 -123 91 -65 Q91 7 138 52 Q190 102 276 102 L901 102 Z "/>
<glyph glyph-name="uniFBB2" unicode="﮲" d="M64 670 Q91 670 110 651 Q129 632 129 605 Q129 579 110 560 Q91 541 64 541 Q38 541 19 560 Q0 579 0 605 Q0 632 19 651 Q38 670 64 670 Z "/>
<glyph glyph-name="uniFBB3" unicode="﮳" d="M64 -94 Q91 -94 110 -113 Q129 -132 129 -159 Q129 -185 110 -204 Q91 -223 64 -223 Q38 -223 19 -204 Q0 -185 0 -159 Q0 -132 19 -113 Q38 -94 64 -94 Z "/>
<glyph glyph-name="uniFBB4" unicode="﮴" d="M64 696 Q91 696 110 677 Q129 658 129 631 Q129 605 110 586 Q91 567 64 567 Q38 567 19 586 Q0 605 0 631 Q0 658 19 677 Q38 696 64 696 Z M217 696 Q244 696 262.5 677 Q281 658 281 631 Q281 604 262.5 585.5 Q244 567 217 567 Q190 567 171 586 Q152 605 152 631 Q152 658 171 677 Q190 696 217 696 Z "/>
<glyph glyph-name="uniFBB5" unicode="﮵" d="M64 -113 Q91 -113 110 -132 Q129 -151 129 -178 Q129 -204 110 -223 Q91 -242 64 -242 Q38 -242 19 -223 Q0 -204 0 -178 Q0 -151 19 -132 Q38 -113 64 -113 Z M217 -113 Q244 -113 262.5 -132 Q281 -151 281 -178 Q281 -205 262.5 -223.5 Q244 -242 217 -242 Q190 -242 171 -223 Q152 -204 152 -178 Q152 -151 171 -132 Q190 -113 217 -113 Z "/>
<glyph glyph-name="uniFBB6" unicode="﮶" d="M140 835 Q165 835 182.5 818 Q200 801 200 776 Q200 751 182.5 733.5 Q165 716 140 716 Q115 716 98 733.5 Q81 751 81 776 Q81 801 98 818 Q115 835 140 835 Z M64 715 Q91 715 110 696 Q129 677 129 650 Q129 624 110 605 Q91 586 64 586 Q38 586 19 605 Q0 624 0 650 Q0 677 19 696 Q38 715 64 715 Z M216 715 Q243 715 262 696 Q281 677 281 650 Q281 624 262 605 Q243 586 216 586 Q189 586 170 605 Q151 624 151 650 Q151 677 170 696 Q189 715 216 715 Z "/>
<glyph glyph-name="uniFBB7" unicode="﮷" d="M141 -108 Q165 -108 182.5 -125.5 Q200 -143 200 -167 Q200 -192 183 -209.5 Q166 -227 141 -227 Q116 -227 98.5 -209.5 Q81 -192 81 -167 Q81 -143 98.5 -125.5 Q116 -108 141 -108 Z M64 -228 Q91 -228 110 -247 Q129 -266 129 -293 Q129 -319 110 -338 Q91 -357 64 -357 Q38 -357 19 -338 Q0 -319 0 -293 Q0 -266 19 -247 Q38 -228 64 -228 Z M217 -228 Q244 -228 262.5 -247 Q281 -266 281 -293 Q281 -320 262.5 -338.5 Q244 -357 217 -357 Q190 -357 171 -338 Q152 -319 152 -293 Q152 -266 171 -247 Q190 -228 217 -228 Z "/>
<glyph glyph-name="uniFBB9" unicode="﮹" d="M65 -116 Q92 -116 111 -134.5 Q130 -153 130 -180 Q130 -207 111 -226 Q92 -245 65 -245 Q39 -245 20 -226 Q1 -207 1 -180 Q1 -153 19.5 -134.5 Q38 -116 65 -116 Z M217 -116 Q244 -116 263 -134.5 Q282 -153 282 -180 Q282 -207 263 -226 Q244 -245 217 -245 Q190 -245 171 -226 Q152 -207 152 -180 Q152 -153 171 -134.5 Q190 -116 217 -116 Z M141 -246 Q166 -246 183.5 -263.5 Q201 -281 201 -305 Q201 -330 183.5 -347.5 Q166 -365 141 -365 Q117 -365 99.5 -347.5 Q82 -330 82 -305 Q82 -281 99.5 -263.5 Q117 -246 141 -246 Z "/>
<glyph glyph-name="uniFBFD" unicode="ﯽ" horiz-adv-x="689" d="M191 174 L191 35 Q191 -36 219 -77 Q251 -121 319 -133 Q343 -137 402 -137 Q461 -137 486 -133 Q535 -124 564 -100 Q604 -66 611 0 L549 0 L497 64 L497 102 L773 102 L773 0 L735 0 Q727 -125 635 -188 Q563 -239 452 -239 L353 -239 Q227 -239 152 -174 Q69 -106 69 24 L69 125 L131 174 L191 174 Z "/>
<glyph glyph-name="uniFBFE" unicode="ﯾ" horiz-adv-x="368" d="M298 460 L298 110 Q298 71 272 38 Q239 0 190 0 L-3 0 L-3 102 L151 102 Q162 102 170 110 Q177 117 177 127 L177 460 L298 460 Z M79 -73 Q106 -73 125 -92 Q144 -111 144 -138 Q144 -165 125 -184 Q106 -203 79 -203 Q53 -203 34 -184 Q15 -165 15 -138 Q15 -111 34 -92 Q53 -73 79 -73 Z M232 -73 Q259 -73 277.5 -92 Q296 -111 296 -138 Q296 -165 277.5 -184 Q259 -203 232 -203 Q205 -203 186 -184 Q167 -165 167 -138 Q167 -111 186 -92 Q205 -73 232 -73 Z "/>
<glyph glyph-name="uniFBFF" unicode="ﯿ" horiz-adv-x="345" d="M298 460 L298 117 L298 102 L349 102 L349 0 L314 0 L277 41 L275 41 Q241 0 190 0 L-3 0 L-3 102 L148 102 Q162 102 168 110 Q177 118 177 130 L177 460 L298 460 Z M81 -73 Q108 -73 127 -92 Q146 -111 146 -138 Q146 -165 127 -184 Q108 -203 81 -203 Q54 -203 35 -184 Q16 -165 16 -138 Q16 -111 35 -92 Q54 -73 81 -73 Z M233 -73 Q260 -73 279 -92 Q298 -111 298 -138 Q298 -165 279 -184 Q260 -203 233 -203 Q207 -203 188 -184 Q169 -165 169 -138 Q169 -111 188 -92 Q207 -73 233 -73 Z "/>
<glyph glyph-name="uniFC3D" unicode="ﰽ" horiz-adv-x="1030" d="M912 730 L912 617 L703 490 Q806 453 879 369 Q971 262 975 110 Q975 64 942 31 Q911 0 867 0 L735 0 Q727 -117 644 -182 Q568 -239 452 -239 L353 -239 Q218 -239 141 -165 Q69 -94 69 24 L69 125 L131 174 L191 174 L191 35 Q191 -48 230 -89 Q260 -123 319 -133 Q343 -137 402 -137 Q461 -137 486 -133 Q532 -125 560 -104 Q604 -69 611 0 L549 0 L497 64 L497 102 L827 102 Q854 102 852 128 Q845 220 784 290 Q744 337 686.5 367 Q629 397 564 404 Q557 404 557 412 L557 526 L912 730 Z "/>
<glyph glyph-name="uniFC3E" unicode="ﰾ" horiz-adv-x="1030" d="M912 730 L912 617 L703 490 Q806 453 879 369 Q971 262 975 110 Q975 64 942 31 Q911 0 867 0 L735 0 Q727 -117 644 -182 Q568 -239 452 -239 L353 -239 Q218 -239 141 -165 Q69 -94 69 24 L69 125 L131 174 L191 174 L191 35 Q191 -48 230 -89 Q260 -123 319 -133 Q343 -137 402 -137 Q461 -137 486 -133 Q532 -125 560 -104 Q604 -69 611 0 L549 0 L497 64 L497 102 L827 102 Q854 102 852 128 Q845 220 784 290 Q744 337 686.5 367 Q629 397 564 404 Q557 404 557 412 L557 526 L912 730 Z M323 -297 Q350 -297 369 -316 Q388 -335 388 -362 Q388 -389 369 -408 Q350 -427 323 -427 Q296 -427 277 -408 Q258 -389 258 -362 Q258 -335 277 -316 Q296 -297 323 -297 Z M475 -297 Q502 -297 521 -316 Q540 -335 540 -362 Q540 -389 521 -408 Q502 -427 475 -427 Q449 -427 430 -408 Q411 -389 411 -362 Q411 -335 430 -316 Q449 -297 475 -297 Z "/>
<glyph glyph-name="uniFC59" unicode="ﱙ" horiz-adv-x="1124" d="M1055 460 L1055 110 Q1055 71 1028 37 Q994 0 946 0 L735 0 Q727 -121 638 -186 Q565 -239 452 -239 L353 -239 Q231 -239 155 -177 Q69 -107 69 24 L69 125 L131 174 L191 174 L191 35 Q191 -41 224 -82 Q254 -121 319 -133 Q343 -137 402 -137 Q461 -137 486 -133 Q535 -124 563 -101 Q604 -68 611 0 L549 0 L497 64 L497 102 L908 102 Q919 102 926 109 Q933 116 933 127 L933 460 L1055 460 Z M828 -73 Q855 -73 874 -92 Q893 -111 893 -138 Q893 -165 874 -184 Q855 -203 828 -203 Q802 -203 783 -184 Q764 -165 764 -138 Q764 -111 783 -92 Q802 -73 828 -73 Z M980 -73 Q1006 -73 1025 -92 Q1044 -111 1044 -138 Q1044 -165 1025 -184 Q1006 -203 980 -203 Q953 -203 934 -184 Q915 -165 915 -138 Q915 -111 934 -92 Q953 -73 980 -73 Z "/>
<glyph glyph-name="uniFC5A" unicode="ﱚ" horiz-adv-x="1116" d="M1055 460 L1055 110 Q1055 71 1028 37 Q994 0 946 0 L735 0 Q727 -121 638 -186 Q565 -239 452 -239 L353 -239 Q231 -239 155 -177 Q69 -107 69 24 L69 125 L131 174 L191 174 L191 35 Q191 -41 224 -82 Q254 -121 319 -133 Q343 -137 402 -137 Q461 -137 486 -133 Q535 -124 563 -101 Q604 -68 611 0 L549 0 L497 64 L497 102 L908 102 Q919 102 926 109 Q933 116 933 127 L933 460 L1055 460 Z M828 -73 Q855 -73 874 -92 Q893 -111 893 -138 Q893 -165 874 -184 Q855 -203 828 -203 Q802 -203 783 -184 Q764 -165 764 -138 Q764 -111 783 -92 Q802 -73 828 -73 Z M980 -73 Q1006 -73 1025 -92 Q1044 -111 1044 -138 Q1044 -165 1025 -184 Q1006 -203 980 -203 Q953 -203 934 -184 Q915 -165 915 -138 Q915 -111 934 -92 Q953 -73 980 -73 Z M323 -297 Q350 -297 369 -316 Q388 -335 388 -362 Q388 -389 369 -408 Q350 -427 323 -427 Q296 -427 277 -408 Q258 -389 258 -362 Q258 -335 277 -316 Q296 -297 323 -297 Z M475 -297 Q502 -297 521 -316 Q540 -335 540 -362 Q540 -389 521 -408 Q502 -427 475 -427 Q449 -427 430 -408 Q411 -389 411 -362 Q411 -335 430 -316 Q449 -297 475 -297 Z "/>
<glyph glyph-name="uniFC83" unicode="ﲃ" horiz-adv-x="1003" d="M912 730 L912 617 L703 489 Q819 448 894 351 Q967 257 974 136 Q975 126 975 118 Q975 110 974 102 L1007 102 L1007 0 L987 0 L954 41 L951 41 Q918 0 867 0 L735 0 Q726 -117 646 -180 Q570 -239 452 -239 L353 -239 Q233 -239 157 -179 Q69 -109 69 24 L69 125 L131 174 L191 174 L191 35 Q191 -39 222 -81 Q253 -121 319 -133 Q343 -137 402 -137 Q461 -137 486 -133 Q533 -125 564 -100 Q604 -68 611 0 L549 0 L497 64 L497 102 L827 102 Q854 102 852 128 Q845 221 785 290 Q744 337 686 367 Q628 397 564 404 Q557 404 557 412 L557 525 L912 730 Z "/>
<glyph glyph-name="uniFC84" unicode="ﲄ" horiz-adv-x="1003" d="M912 730 L912 617 L703 489 Q819 448 894 351 Q966 257 974 136 L974 112 L974 102 L1007 102 L1007 0 L987 0 L954 41 L951 41 Q918 0 867 0 L735 0 Q726 -117 646 -180 Q570 -239 452 -239 L353 -239 Q233 -239 157 -179 Q69 -109 69 24 L69 125 L131 174 L191 174 L191 35 Q191 -39 222 -81 Q253 -121 319 -133 Q343 -137 402 -137 Q461 -137 486 -133 Q533 -125 564 -100 Q604 -68 611 0 L549 0 L497 64 L497 102 L827 102 Q854 102 852 128 Q845 217 788 286 Q748 335 689 366 Q630 397 564 404 Q557 404 557 412 L557 525 L912 730 Z M323 -297 Q350 -297 369 -316 Q388 -335 388 -362 Q388 -389 369 -408 Q350 -427 323 -427 Q296 -427 277 -408 Q258 -389 258 -362 Q258 -335 277 -316 Q296 -297 323 -297 Z M475 -297 Q502 -297 521 -316 Q540 -335 540 -362 Q540 -389 521 -408 Q502 -427 475 -427 Q449 -427 430 -408 Q411 -389 411 -362 Q411 -335 430 -316 Q449 -297 475 -297 Z "/>
<glyph glyph-name="uniFC95" unicode="ﲕ" horiz-adv-x="1102" d="M1055 460 L1055 117 Q1055 107 1054 102 L1106 102 L1106 0 L1067 0 L1034 41 L1031 41 Q998 0 946 0 L735 0 Q727 -119 642 -182 Q568 -239 452 -239 L353 -239 Q227 -239 152 -175 Q69 -105 69 24 L69 125 L131 174 L191 174 L191 35 Q191 -39 222 -81 Q253 -121 319 -133 Q343 -137 402 -137 Q461 -137 486 -133 Q535 -124 564 -100 Q604 -66 611 0 L549 0 L497 64 L497 102 L904 102 Q917 102 925 110 Q933 118 933 130 L933 460 L1055 460 Z M838 -73 Q865 -73 884 -92 Q903 -111 903 -138 Q903 -165 884 -184 Q865 -203 838 -203 Q811 -203 792 -184 Q773 -165 773 -138 Q773 -111 792 -92 Q811 -73 838 -73 Z M990 -73 Q1017 -73 1036 -92 Q1055 -111 1055 -138 Q1055 -165 1036 -184 Q1017 -203 990 -203 Q964 -203 945 -184 Q926 -165 926 -138 Q926 -111 945 -92 Q964 -73 990 -73 Z "/>
<glyph glyph-name="uniFC96" unicode="ﲖ" horiz-adv-x="1102" d="M1055 460 L1055 117 Q1055 107 1054 102 L1106 102 L1106 0 L1067 0 L1034 41 L1031 41 Q998 0 946 0 L735 0 Q727 -119 642 -182 Q568 -239 452 -239 L353 -239 Q227 -239 152 -175 Q69 -105 69 24 L69 125 L131 174 L191 174 L191 35 Q191 -39 222 -81 Q253 -121 319 -133 Q343 -137 402 -137 Q461 -137 486 -133 Q535 -124 564 -100 Q604 -66 611 0 L549 0 L497 64 L497 102 L904 102 Q917 102 925 110 Q933 118 933 130 L933 460 L1055 460 Z M838 -73 Q865 -73 884 -92 Q903 -111 903 -138 Q903 -165 884 -184 Q865 -203 838 -203 Q811 -203 792 -184 Q773 -165 773 -138 Q773 -111 792 -92 Q811 -73 838 -73 Z M990 -73 Q1017 -73 1036 -92 Q1055 -111 1055 -138 Q1055 -165 1036 -184 Q1017 -203 990 -203 Q964 -203 945 -184 Q926 -165 926 -138 Q926 -111 945 -92 Q964 -73 990 -73 Z M323 -297 Q350 -297 369 -316 Q388 -335 388 -362 Q388 -389 369 -408 Q350 -427 323 -427 Q296 -427 277 -408 Q258 -389 258 -362 Q258 -335 277 -316 Q296 -297 323 -297 Z M475 -297 Q502 -297 521 -316 Q540 -335 540 -362 Q540 -389 521 -408 Q502 -427 475 -427 Q449 -427 430 -408 Q411 -389 411 -362 Q411 -335 430 -316 Q449 -297 475 -297 Z "/>
<glyph glyph-name="uniFD3E" unicode="﴾" horiz-adv-x="566" d="M397 716 L435 686 Q364 580 337 445 L400 445 L328 374 L283 418 L238 374 L166 445 L229 445 Q262 606 355 716 L397 716 Z M117 396 L189 324 L145 279 L189 235 L117 162 L117 233 L37 266 L37 290 L117 320 L117 396 Z M450 396 L450 320 L529 290 L529 266 L450 233 L450 162 L378 235 L422 279 L378 324 L450 396 Z M283 335 L338 280 L283 226 L229 280 L283 335 Z M328 186 L400 115 L337 115 Q362 20 424 -76 L386 -106 L344 -106 Q263 -13 229 115 L166 115 L238 186 L283 140 L328 186 Z "/>
<glyph glyph-name="uniFD3F" unicode="﴿" horiz-adv-x="566" d="M169 716 L212 716 Q307 603 337 445 L400 445 L328 374 L283 418 L238 374 L166 445 L229 445 Q204 575 132 686 L169 716 Z M116 396 L189 324 L144 279 L189 235 L116 162 L116 233 L37 266 L37 290 L116 320 L116 396 Z M449 396 L449 320 L529 290 L529 266 L449 233 L449 162 L378 235 L422 279 L378 324 L449 396 Z M283 335 L337 280 L283 226 L228 280 L283 335 Z M328 186 L400 115 L337 115 Q305 -9 223 -106 L180 -106 L142 -76 Q203 18 229 115 L166 115 L238 186 L283 140 L328 186 Z "/>
<glyph glyph-name="uniFDF2" unicode="ﷲ" horiz-adv-x="1464" d="M768 1100 L768 913 L740 891 L713 891 L713 1100 L768 1100 Z M878 852 L878 734 Q878 716 866 701 Q852 685 829 685 L776 685 L760 702 L758 702 Q754 697 746 692 Q738 685 723 685 L653 685 Q631 685 617 701 Q605 715 605 734 L605 806 L632 828 L659 828 L659 739 Q659 735 661 733 Q664 729 669 729 L703 729 Q708 729 711 732 Q714 735 714 741 L714 828 L769 828 L769 729 L814 729 Q818 729 821 732 Q824 735 824 739 L824 852 L878 852 Z M1395 762 L1395 25 L1334 -25 L1273 -25 L1273 762 L1395 762 Z M1137 613 L1137 110 Q1137 65 1107 35 Q1077 0 1029 0 L830 0 L792 41 L790 41 Q772 19 751 11 Q729 0 705 0 L478 0 Q432 0 395 37 Q338 -10 268 -10 Q188 -10 132 40 Q56 111 56 230 Q56 349 132 417 Q194 471 282 473 Q289 473 294 473 Q343 473 387 454 L430 487 L490 487 L490 127 Q490 115 497 109 Q503 102 513 102 L666 102 Q677 102 683 108 Q692 115 692 127 L692 613 L814 613 L814 137 L813 102 L990 102 Q1004 102 1010 111 Q1015 118 1015 127 L1015 613 L1137 613 Z M288 371 Q248 367 220 340 Q177 300 177 229 Q177 158 218 120 Q242 95 281 91 Q287 91 293 91 Q329 91 368 106 L368 358 Q333 371 300 371 L288 371 Z "/>
<glyph glyph-name="uniFDFA" unicode="ﷺ" horiz-adv-x="618" d="M316 685 Q309 686 309 697 Q309 704 313 709 L314 709 Q313 706 313 703 Q313 694 318 693 Q319 693 320 693 Q322 693 323 695 Q324 697 324 700 Q324 703 323 709 L326 713 L327 713 Q329 706 329 696 Q331 694 332 694 Q334 694 336 696 Q337 697 337 698 Q337 700 335 704 Q333 709 333 711 Q333 715 336 716 Q337 714 339 709 Q342 703 342 699 Q342 698 342 697 Q341 687 331 687 Q327 687 324 690 Q322 685 317 685 L316 685 Z M217 659 L214 661 Q246 676 255 688 Q243 695 242 701 Q241 706 246.5 710.5 Q252 715 259 715 Q262 715 264 714 Q267 712 267 706 Q267 699 263 691 L270 689 L267 683 L259 686 Q247 671 217 659 Z M500 243 Q529 247 569 271 L573 268 L564 234 Q520 205 464 205 Q411 205 396 236 Q387 207 360 207 Q334 207 326 234 Q300 206 283.5 196.5 Q267 187 248 187 Q238 187 227 190 L227 146 Q227 111 267 111 Q274 111 281 112 Q324 119 411 151 Q462 170 473 170 Q492 170 492 150 Q492 149 492 147 Q484 114 454 92 L450 98 Q474 118 474 133 Q474 135 473 137 Q472 140 466 140 Q461 140 454 138 L351 101 Q292 81 262 82 Q239 83 228 96 Q232 66 240 58 Q276 41 276 37 Q276 36 275 33 Q268 15 263 14 Q258 14 245 20 Q224 30 209 30 Q203 30 196 28 Q183 25 155 9 Q116 -12 98 -12 Q78 -12 65 8 Q52 28 53 58 Q54 90 71.5 115.5 Q89 141 115 149 L117 149 L118 145 Q97 137 82 111.5 Q67 86 67 59 Q67 16 96 16 Q120 16 162 40 Q195 58 212 61 Q208 73 208 109 L208 197 Q184 212 171 245 Q167 242 155 223 Q118 162 93 162 Q74 162 61.5 180.5 Q49 199 49 227 Q49 230 49 233 Q51 265 68 290 Q85 315 111 324 L113 324 L114 319 Q94 312 78.5 286 Q63 260 63 233 Q63 191 92 191 Q114 191 134 222 L157 256 Q168 272 176 272 Q178 272 179 271 Q184 269 191 255 Q200 238 208 231 L208 346 L151 345 Q104 345 84 351 Q64 357 55 374 Q52 379 52 385 Q52 400 63 415.5 Q74 431 90 439 L140 462 Q162 475 162 497 L161 684 Q161 695 179 713 L180 713 L181 494 Q181 461 208 445 L208 483 Q208 499 227 511 L228 511 Q229 510 229 436 L245 435 Q316 435 386 466 L386 490 Q386 503 405 518 L407 518 L408 476 Q428 487 435 487 Q440 487 440 481 Q440 478 438 470 Q437 466 437 461 Q437 446 450 440 Q481 511 524 515 Q543 516 557 503 Q571 490 571 473 Q571 465 568 457 Q559 435 532 420 Q505 405 474 405 Q459 405 448 410 L436 393 L433 393 Q433 404 438 416 Q422 429 418 455 L408 449 L408 379 L531 382 Q575 383 575 356 Q575 343 564 330 L561 331 L561 334 Q561 353 531 353 L408 350 L408 282 Q408 238 468 238 Q454 259 454 279 Q454 287 456 295 Q462 313 475.5 324.5 Q489 336 505 336 Q535 336 560 313 L557 304 Q538 309 523 309 Q488 309 473 284 Q473 276 482 262.5 Q491 249 500 243 Z M452 515 L448 515 L443 684 Q441 687 441 690 Q441 692 441 693 Q448 711 451 713 L454 713 Q462 702 468 682.5 Q474 663 473 653 L472 653 L462 663 L466 551 Q466 526 452 515 Z M247 702 Q248 701 257 695 Q259 699 259 702 Q259 705 257 706 Q256 707 255 707 Q252 707 247 702 Z M230 530 Q219 530 212 546.5 Q205 563 205 590 Q205 609 208 626 L209 626 L210 623 Q210 616 210 610 Q210 556 230 556 Q237 556 241.5 566 Q246 576 253 606 Q264 652 277 652 Q282 652 282 642 Q282 634 279 617 Q277 605 277 594 Q277 557 295 557 Q297 557 298 557 Q313 557 327 580 Q330 593 330 611 Q330 636 325 657 Q326 660 331.5 669 Q337 678 340 680 L342 680 Q349 664 349 628 L348 588 Q348 585 348 579 Q350 556 374 556 Q397 556 406 577 Q406 590 394 624 Q386 646 384 657 Q382 659 382 662 Q382 666 390 682 L393 682 Q393 681 400 673 Q416 654 416 649 L415 648 L406 651 L422 585 Q422 579 421 573 Q418 555 405 542.5 Q392 530 376 530 Q362 530 350 539.5 Q338 549 334 563 Q323 530 296 530 Q281 530 272.5 546 Q264 562 264 589 Q264 603 266 618 Q263 611 259 589 Q248 530 230 530 Z M251 460 L257 472 Q344 503 374 509 L368 497 Q340 492 303 479 L251 460 Z M546 461 Q540 485 523 485 Q511 485 495 471.5 Q479 458 466 436 Q472 435 478 435 Q498 435 517.5 442.5 Q537 450 546 461 Z M208 375 L208 411 Q173 420 164 456 Q151 437 109 422 Q75 410 70 398 Q75 384 96.5 379 Q118 374 169 374 L208 375 Z M229 406 L229 375 L386 379 L386 437 Q322 406 244 406 L229 406 Z M387 254 Q390 261 390 307 Q390 327 389 350 L227 346 L227 219 Q237 214 249 214 Q284 214 325 262 Q331 268 335 268 Q339 268 342 261 L346 250 Q353 239 366 239 Q380 239 387 254 Z M252 269 L258 280 Q336 310 375 318 L368 306 Q340 301 304 288 L252 269 Z M126 309 L129 309 Q123 292 123 280 Q123 270 127 269 Q128 269 129 269 Q132 269 135 276 L136 276 Q136 275 136 274 Q136 265 132 259 Q128 253 122 254 Q113 255 113 272 Q113 294 126 309 Z M340 175 L354 189 L375 170 L354 148 L340 163 L325 148 L306 170 L325 189 L340 175 Z M536 165 Q552 165 562 150 Q572 135 572 111 Q572 75 550 43 Q533 18 509.5 2.5 Q486 -13 464 -13 Q460 -13 456 -12 Q438 -9 427 4 Q416 17 416 37 Q416 69 441 91 L445 85 Q431 72 431 54 Q431 41 438 30.5 Q445 20 455 18 Q459 17 464 17 Q488 17 512.5 36 Q537 55 551 85 Q546 88 530 91 Q516 93 511 95 Q498 102 498 116 Q498 124 502 135 Q515 165 536 165 Z M517 127 Q517 122 535 120 Q548 118 553 116 Q541 136 532 138 Q517 138 517 127 Z M117 93 Q112 93 112 102 Q112 112 121 112 Q128 112 133 101 Q136 117 147 117 Q155 117 155 109 Q155 104 152 98 L151 98 Q151 104 147 104 Q140 104 138 77 L136 75 Q136 82 131.5 89 Q127 96 123 96 Q120 93 117 93 Z M335 51 L335 53 Q340 51 346 51 Q357 51 365 58 Q352 64 346 64 Q343 64 341 63 L339 64 Q339 67 343.5 71 Q348 75 352 75 L354 75 L376 69 Q383 68 383 67 Q383 66 382 64 Q374 45 353 45 Q343 45 335 51 Z M386 22 L394 29 Q399 22 399 13 Q399 11 399 10 Q397 -1 386 -1 Q379 -1 376 5 Q372 -1 365 -1 Q358 -1 354 5 Q342 -2 319 -2 Q306 -2 292 0 L292 2 L304 2 Q346 2 358 19 L360 19 Q360 10 367 10 Q374 10 375 21 L376 21 Q379 10 388 10 L390 10 Q390 20 386 22 Z "/>
<glyph glyph-name="uniFDFC" unicode="﷼" horiz-adv-x="1779" d="M736 716 L736 24 Q736 -95 664 -164 Q588 -239 452 -239 L353 -239 Q222 -239 146 -170 Q69 -101 69 24 L69 203 L131 253 L191 253 L191 35 Q191 -54 237 -97 Q268 -125 319 -133 Q343 -137 403 -137 Q462 -137 486 -133 Q541 -123 570 -95 Q614 -54 614 35 L614 716 L736 716 Z M1003 716 L1003 127 Q1003 119 1009 111 Q1017 102 1029 102 L1201 102 Q1212 102 1220 110 Q1226 116 1226 127 L1226 460 L1348 460 L1348 110 Q1348 71 1322 38 Q1289 0 1240 0 L990 0 Q949 0 917 29 Q881 62 881 110 L881 716 L1003 716 Z M1710 460 L1710 24 Q1710 -100 1634 -168 Q1585 -213 1507 -231 Q1471 -238 1433 -238 Q1419 -238 1397 -236 L1349 -175 L1349 -132 Q1380 -137 1411 -137 Q1422 -137 1433 -136 Q1513 -128 1549 -89 Q1588 -49 1588 35 L1588 460 L1710 460 Z M1039 -73 Q1066 -73 1085 -92 Q1104 -111 1104 -138 Q1104 -165 1085 -184 Q1066 -203 1039 -203 Q1012 -203 993 -184 Q974 -165 974 -138 Q974 -111 993 -92 Q1012 -73 1039 -73 Z M1191 -73 Q1218 -73 1237 -92 Q1256 -111 1256 -138 Q1256 -165 1237 -184 Q1218 -203 1191 -203 Q1164 -203 1145.5 -184 Q1127 -165 1127 -138 Q1127 -111 1145.5 -92 Q1164 -73 1191 -73 Z "/>
</font>
</svg>
