<?xml version="1.0" encoding="UTF-8"?>
<svg xmlns="http://www.w3.org/2000/svg" xmlns:xlink="http://www.w3.org/1999/xlink" version="1.2">
<font id="BoutrosAsma Light">
<font-face font-family="BoutrosAsma" units-per-em="1000" ascent="728" descent="-210" font-style="normal" font-weight="300" font-stretch="normal" cap-height="716" x-height="530" underline-position="-94" underline-thickness="63"/>
<missing-glyph horiz-adv-x="184" d="M18 0 L18 716 L166 716 L166 0 L18 0 Z M148 18 L148 698 L36 698 L36 18 L148 18 Z "/>
<glyph glyph-name="space" unicode=" " horiz-adv-x="184" d=""/>
<glyph glyph-name="exclam" unicode="!" horiz-adv-x="176" d="M122 716 L122 200 L88 172 L54 172 L54 716 L122 716 Z M89 70 Q104 70 115 59 Q126 48 126 32 Q126 17 115 6 Q104 -5 89 -5 Q73 -5 62 6 Q51 17 51 32 Q51 48 62 59 Q73 70 89 70 Z "/>
<glyph glyph-name="quotedbl" unicode="&quot;" horiz-adv-x="294" d="M117 716 L117 507 L95 488 L69 488 L69 716 L117 716 Z M225 716 L225 507 L203 488 L177 488 L177 716 L225 716 Z "/>
<glyph glyph-name="numbersign" unicode="#" horiz-adv-x="610" d="M497 672 L457 457 L589 457 L589 411 L448 411 L416 256 L557 256 L557 209 L407 209 L368 0 L301 0 L341 209 L217 209 L178 0 L114 0 L152 209 L21 209 L21 256 L160 256 L193 411 L54 411 L54 457 L200 457 L240 672 L306 672 L267 457 L392 457 L432 672 L497 672 Z M383 411 L258 411 L226 256 L350 256 L383 411 Z "/>
<glyph glyph-name="dollar" unicode="$" horiz-adv-x="553" d="M308 716 L308 629 Q352 623 370.5 618 Q389 613 433 596 L433 548 Q372 577 308 582 L308 358 Q385 332 420 301 Q461 264 461 203 Q461 142 419 104 Q380 69 308 57 L308 -55 L250 -55 L250 53 Q240 53 229 53 Q170 53 116 66 L92 96 L92 119 Q111 109 178 102 Q213 98 235 98 Q245 98 250 98 L250 326 Q203 341 179 353 Q155 365 136 383 Q98 419 98 486 Q98 543 138 582 Q177 618 250 628 L250 716 L308 716 Z M250 376 L250 580 Q198 573 171 543 Q150 518 150 482 Q150 442 172 418 Q195 393 250 376 Z M308 305 L308 105 Q368 115 394 150 Q409 175 409 204 Q409 240 387 264 Q365 287 308 305 Z "/>
<glyph glyph-name="percent" unicode="%" horiz-adv-x="696" d="M157 679 Q208 679 243 644 Q299 588 299 461 Q299 375 274 324 Q239 251 159 251 Q88 251 52 307 Q18 360 18 459 Q18 583 71 642 Q106 679 157 679 Z M581 673 L184 0 L131 0 L527 673 L581 673 Z M157 634 Q123 634 101 614 Q61 578 61 460 Q61 378 82 340 Q106 296 157 296 Q211 296 235 340 Q257 380 257 460 Q257 579 215 615 Q193 634 157 634 Z M535 425 Q586 425 621 390 Q677 334 677 207 Q677 121 652 70 Q616 -3 537 -3 Q466 -3 430 53 Q396 106 396 205 Q396 329 449 388 Q484 425 535 425 Z M535 380 Q501 380 479 360 Q439 324 439 206 Q439 125 460 86 Q484 42 535 42 Q589 42 613 86 Q635 126 635 206 Q635 326 594 361 Q571 380 535 380 Z "/>
<glyph glyph-name="ampersand" unicode="&amp;" horiz-adv-x="655" d="M531 327 L598 327 Q589 218 546 140 L663 0 L583 0 L509 87 Q461 35 409 12 Q357 -11 289 -11 Q184 -11 122 51 Q61 112 61 204 Q61 280 106 333 Q146 380 230 422 L221 435 Q184 485 172.5 512 Q161 539 161 573 Q161 641 212 683 Q257 720 320 720 Q389 720 431 675 Q467 636 467 578 Q467 522 434 481 Q401 440 329 405 L503 193 Q528 249 531 327 Z M292 449 Q297 452 303 455 Q399 501 399 576 Q399 615 373 639 Q350 659 316 659 Q276 659 251 632 Q229 609 229 576 Q229 550 242.5 522.5 Q256 495 292 449 Z M268 376 Q132 317 132 203 Q132 131 184 88 Q229 50 296 50 Q393 50 467 137 L268 376 Z "/>
<glyph glyph-name="quotesingle" unicode="'" horiz-adv-x="186" d="M117 716 L117 507 L95 488 L69 488 L69 716 L117 716 Z "/>
<glyph glyph-name="parenleft" unicode="(" horiz-adv-x="297" d="M235 716 L251 705 Q222 667 195.5 611 Q169 555 153 500 Q127 408 127 302 Q127 191 160 87 Q192 -11 251 -95 L235 -106 L213 -106 Q143 -25 108 82 Q74 185 74 301 Q74 419 108 524 Q143 633 213 716 L235 716 Z "/>
<glyph glyph-name="parenright" unicode=")" horiz-adv-x="297" d="M62 716 L85 716 Q154 633 189 524 Q223 419 223 301 Q223 185 189 82 Q154 -26 85 -106 L62 -106 L46 -95 Q105 -11 137 87 Q170 191 170 302 Q170 408 144 500 Q128 555 101.5 611.5 Q75 668 46 705 L62 716 Z "/>
<glyph glyph-name="asterisk" unicode="*" horiz-adv-x="402" d="M229 716 L227 598 L338 637 L356 583 L242 550 L314 456 L268 423 L201 520 L134 423 L88 456 L160 550 L47 583 L64 637 L176 598 L173 716 L229 716 Z "/>
<glyph glyph-name="plus" unicode="+" horiz-adv-x="511" d="M282 10 L229 10 L229 191 L46 191 L46 244 L229 244 L229 429 L282 429 L282 244 L465 244 L465 191 L282 191 L282 10 Z "/>
<glyph glyph-name="comma" unicode="," horiz-adv-x="183" d="M88 69 Q107 69 118 56 Q129 44 132 24 Q134 13 134 2 Q134 -18 128 -39 Q114 -93 77 -134 L58 -134 L43 -122 Q68 -94 84 -56 Q95 -26 95 -8 Q91 -9 87 -9 Q69 -9 59 3 Q54 9 52 20 Q51 25 51 29 Q51 38 54 46 Q64 69 88 69 Z "/>
<glyph glyph-name="hyphen" unicode="-" horiz-adv-x="321" d="M284 244 L284 191 L37 191 L37 244 L284 244 Z "/>
<glyph glyph-name="period" unicode="." horiz-adv-x="176" d="M89 70 Q104 70 115 59 Q126 48 126 32 Q126 17 115 6 Q104 -5 89 -5 Q73 -5 62 6 Q51 17 51 32 Q51 48 62 59 Q73 70 89 70 Z "/>
<glyph glyph-name="slash" unicode="/" horiz-adv-x="326" d="M317 673 L66 0 L9 0 L260 673 L317 673 Z "/>
<glyph glyph-name="zero" unicode="0" horiz-adv-x="510" d="M255 688 Q370 688 425 584 Q473 494 473 331 Q474 181 425 92 Q368 -10 255 -10 Q161 -10 106 61 Q37 150 37 329 Q37 497 88 588 Q143 688 255 688 Z M255 633 Q161 633 125 541 Q97 473 97 329 Q97 202 125 135 Q162 47 254 47 Q344 47 383 134 Q413 201 413 329 Q413 471 385 540 Q348 633 255 633 Z "/>
<glyph glyph-name="one" unicode="1" horiz-adv-x="324" d="M255 673 L255 24 L225 0 L197 0 L197 598 L66 498 L32 542 L197 673 L255 673 Z "/>
<glyph glyph-name="two" unicode="2" horiz-adv-x="472" d="M265 686 Q318 681 359 655 Q400 629 419 587 Q436 550 436 508 Q436 430 384 364 Q336 302 271 231 L177 129 L107 53 L440 53 L440 29 L416 0 L32 0 L32 53 L135 165 L234 273 Q291 335 339 397 Q379 447 379 508 Q379 537 368 560 Q340 619 268 629 Q258 631 246 631 Q174 631 108 580 L76 625 Q175 687 245 687 Q255 687 265 686 Z "/>
<glyph glyph-name="three" unicode="3" horiz-adv-x="452" d="M254 679 Q312 667 348 631 Q392 585 392 511 Q392 450 357 406 Q329 370 287 355 Q351 342 391 282 Q421 235 421 179 Q421 129 398 88.5 Q375 48 333 24 Q284 -5 211 -6 Q138 -7 84 9 L56 44 L56 66 Q138 46 200 47 Q253 48 289 64 Q363 95 363 176 Q363 233 328 270 Q269 335 135 335 L135 384 L198 384 Q269 384 307 426 Q334 456 334 501 Q334 503 334 506 Q331 557 300 586 Q276 610 237 619 Q210 626 177 626 Q136 626 88 617 L88 670 Q141 685 193 685 Q225 685 254 679 Z "/>
<glyph glyph-name="four" unicode="4" horiz-adv-x="526" d="M384 673 L384 223 L503 223 L503 170 L384 170 L384 24 L354 0 L324 0 L324 170 L23 170 L23 231 L311 673 L384 673 Z M324 598 L85 223 L324 223 L324 598 Z "/>
<glyph glyph-name="five" unicode="5" horiz-adv-x="452" d="M367 673 L367 625 L124 625 L110 390 Q160 398 199 398 Q214 398 228 397 Q273 393 314 375 Q370 348 399 282 Q416 241 416 190 Q416 186 416 181 Q413 128 390 86 Q367 47 327 24 Q277 -5 204 -6 Q131 -7 77 9 L49 44 L49 66 Q131 46 194 47 Q246 48 283 64 Q352 94 359 177 Q360 185 360 192 Q360 249 336 283 Q301 332 225 343 Q203 346 177 346 Q154 346 127 343 Q101 341 48 333 L67 673 L367 673 Z "/>
<glyph glyph-name="six" unicode="6" horiz-adv-x="498" d="M321 684 Q331 684 342 684 Q361 684 385 682 L409 651 L409 631 Q385 635 357 635 Q277 635 224 590 Q181 554 155 488 Q129 424 118 342 Q178 409 269 411 Q351 413 406 358 Q465 299 464 208 Q463 110 402 46 Q347 -11 258 -13 Q253 -13 250 -13 Q168 -13 119 35 Q90 65 73 110 Q51 169 51 255 Q51 263 51 271 L51 295 Q58 419 103 521 Q137 597 183 631 Q245 678 321 684 Z M268 358 Q229 358 184 330 Q125 292 120 240 Q119 224 119 210 Q119 129 154 86 Q193 39 263 41 Q329 42 367 87 Q406 132 406 208 Q406 275 366 318 Q329 358 268 358 Z "/>
<glyph glyph-name="seven" unicode="7" horiz-adv-x="481" d="M451 673 L451 624 L204 42 L152 0 L125 0 L394 620 L30 620 L30 673 L451 673 Z "/>
<glyph glyph-name="eight" unicode="8" horiz-adv-x="519" d="M261 687 Q348 687 394 648 Q440 609 440 544 Q440 535 439 525 Q434 468 399 425 Q370 389 310 351 Q389 319 433 267 Q478 213 477 151 Q475 91 432 49 Q374 -10 258 -10 Q161 -10 99 35 Q41 76 41 158 Q41 214 82 263 Q106 291 144 315.5 Q182 340 213 348 Q163 378 133 410 Q85 460 81 523 Q80 531 80 539 Q80 618 140 658 Q185 687 261 687 Z M261 641 Q205 641 172 612 Q138 584 138 535 Q138 530 138 524 Q141 483 169 444 Q204 395 261 369 Q321 399 354 450 Q376 484 382 523 Q383 533 383 542 Q383 575 361 602 Q329 641 261 641 Z M261 335 Q176 299 147 266 Q107 221 107 161 Q107 100 156 69 Q196 44 260 44 Q332 44 375 77 Q415 108 415 160 Q415 218 378 260 Q343 297 261 335 Z "/>
<glyph glyph-name="nine" unicode="9" horiz-adv-x="498" d="M249 689 Q333 689 381 647 Q421 612 438.5 544.5 Q456 477 456 358 Q456 274 451 230.5 Q446 187 433 151 Q384 19 244 0 Q220 -3 194 -3 Q161 -3 123 2 L95 37 L95 59 Q142 50 184 50 Q208 50 227 53 Q329 70 368 158 Q390 209 390 319 Q390 330 391 343 Q369 313 340 295 Q297 268 241 268 Q144 268 89 327 Q37 384 37 480 Q37 579 100 637 Q157 689 249 689 Z M249 636 Q184 636 142 596 Q95 552 95 480 Q95 402 138 360 Q178 320 244 320 Q301 320 346 361 Q388 398 388 457 Q388 552 351 594 Q314 636 249 636 Z "/>
<glyph glyph-name="colon" unicode=":" horiz-adv-x="177" d="M89 257 Q104 257 115 246 Q126 235 126 219 Q126 204 115 193 Q104 182 89 182 Q73 182 62 193 Q51 204 51 219 Q51 235 62 246 Q73 257 89 257 Z M89 70 Q104 70 115 59 Q126 48 126 32 Q126 17 115 6 Q104 -5 89 -5 Q73 -5 62 6 Q51 17 51 32 Q51 48 62 59 Q73 70 89 70 Z "/>
<glyph glyph-name="semicolon" unicode=";" horiz-adv-x="183" d="M88 69 Q107 69 118 56 Q129 44 132 24 Q134 13 134 2 Q134 -18 128 -39 Q114 -93 77 -134 L58 -134 L43 -122 Q68 -94 84 -56 Q95 -26 95 -8 Q91 -9 87 -9 Q69 -9 59 3 Q54 9 52 20 Q51 25 51 29 Q51 38 54 46 Q64 69 88 69 Z M87 182 Q72 182 61 193 Q50 204 50 220 Q50 235 61 246 Q72 257 87 257 Q103 257 114 246 Q125 235 125 220 Q125 204 114 193 Q103 182 87 182 Z "/>
<glyph glyph-name="less" unicode="&lt;" horiz-adv-x="502" d="M460 565 L460 507 L107 331 L460 177 L460 118 L41 310 L41 347 L460 565 Z "/>
<glyph glyph-name="equal" unicode="=" horiz-adv-x="511" d="M465 344 L465 291 L46 291 L46 344 L465 344 Z M465 150 L465 97 L46 97 L46 150 L465 150 Z "/>
<glyph glyph-name="greater" unicode="&gt;" horiz-adv-x="502" d="M41 565 L460 347 L460 310 L41 118 L41 177 L395 331 L41 507 L41 565 Z "/>
<glyph glyph-name="question" unicode="?" horiz-adv-x="503" d="M283 179 L219 179 Q218 194 218 203 Q218 263 237 302.5 Q256 342 307 387 Q362 436 380.5 466 Q399 496 399 535 Q399 598 355 636 Q317 669 260 669 Q206 669 166 638 Q132 612 119 570 Q110 541 110 495 L39 495 Q39 504 39 510 Q39 617 108 678 Q168 730 264 730 Q363 730 421 671 Q471 619 471 540 Q471 492 450.5 454.5 Q430 417 377 368 Q328 323 318 312.5 Q308 302 300 287 Q282 253 282 198 Q282 193 283 179 Z M296 93 L296 0 L210 0 L210 93 L296 93 Z "/>
<glyph glyph-name="at" unicode="@" horiz-adv-x="801" d="M401 683 Q494 683 562 653 Q615 630 662 585 Q705 542 730 479 Q755 416 756 348 Q756 342 756 335 Q756 218 700 149 Q659 100 589 100 Q585 100 581 100 Q532 103 512 129 Q469 99 408 99 Q328 100 277 150 Q222 203 222 292 Q222 394 280 452 Q332 500 406 498 Q468 496 505 473 L538 499 L557 499 L557 177 Q557 169 568 163.5 Q579 158 596 158 Q599 158 602 158 Q645 161 667 199 Q698 252 698 326 Q698 336 698 347 Q695 406 674 458.5 Q653 511 619 545 Q541 624 401 624 Q278 624 192 539 Q101 449 101 311 Q101 192 156 112 Q203 44 286 14 Q342 -6 409 -6 Q443 -6 481 -1 L481 -22 L458 -50 Q422 -55 388 -55 Q318 -55 257 -33 Q167 0 113 74 Q46 168 46 309 Q47 398 83 476 Q113 542 163 591 Q263 683 401 683 Z M404 451 Q350 445 317 411 Q275 369 275 297 Q275 228 310 188 Q345 148 409 147 Q467 146 505 180 L505 434 Q462 452 421 452 Q413 452 404 451 Z "/>
<glyph glyph-name="A" unicode="A" horiz-adv-x="663" d="M487 226 L172 226 L87 0 L14 0 L291 716 L366 716 L648 0 L574 0 L487 226 Z M464 283 L326 642 L193 283 L464 283 Z "/>
<glyph glyph-name="B" unicode="B" horiz-adv-x="672" d="M86 0 L86 716 L376 716 Q434 716 470 706 Q506 696 534 672 Q590 623 590 537 Q590 425 489 380 Q622 339 622 203 Q622 105 559 50 Q528 23 487 11.5 Q446 0 380 0 L86 0 Z M154 400 L368 400 Q453 400 490 439 Q522 473 522 527 Q522 581 490 616 Q453 655 368 655 L154 655 L154 400 Z M154 61 L388 61 Q478 61 517 100 Q552 134 552 202 Q552 280 507 313 Q467 343 388 343 L154 343 L154 61 Z "/>
<glyph glyph-name="C" unicode="C" horiz-adv-x="715" d="M665 513 L590 513 Q571 592 507 634 Q452 671 376 671 Q253 671 186 575 Q127 491 127 355 Q127 203 203 118 Q269 45 375 45 Q473 45 536 109 Q591 166 604 257 L674 257 Q661 166 619 106 Q535 -16 373 -16 Q217 -16 131 98 Q56 197 56 358 Q56 543 155 644 Q240 732 380 732 Q498 732 576 666 Q644 608 665 513 Z "/>
<glyph glyph-name="D" unicode="D" horiz-adv-x="712" d="M86 0 L86 716 L347 716 Q521 716 593 605 Q656 508 656 360 Q656 202 581 102 Q541 48 482.5 24 Q424 0 332 0 L86 0 Z M157 61 L316 61 Q400 61 446.5 79 Q493 97 526 142 Q585 222 585 359 Q585 513 522 588 Q466 655 343 655 L157 655 L157 61 Z "/>
<glyph glyph-name="E" unicode="E" horiz-adv-x="618" d="M564 716 L564 655 L157 655 L157 396 L531 396 L531 339 L157 339 L157 61 L574 61 L574 0 L86 0 L86 716 L564 716 Z "/>
<glyph glyph-name="F" unicode="F" horiz-adv-x="566" d="M540 716 L540 655 L157 655 L157 400 L492 400 L492 339 L157 339 L157 0 L86 0 L86 716 L540 716 Z "/>
<glyph glyph-name="G" unicode="G" horiz-adv-x="760" d="M382 365 L684 365 L684 0 L627 0 L627 119 Q575 44 511 12 Q454 -16 380 -16 Q223 -16 134 99 Q56 199 56 356 Q56 539 160 642 Q250 732 391 732 Q516 732 594 663 Q661 604 677 504 L608 504 Q588 589 526 633 Q471 671 392 671 Q264 671 191 575 Q127 491 127 361 Q127 210 207 122 Q277 45 384 45 Q453 45 509 80 Q558 110 585 159 Q617 218 622 308 L382 308 L382 365 Z "/>
<glyph glyph-name="H" unicode="H" horiz-adv-x="707" d="M550 349 L157 349 L157 0 L86 0 L86 716 L157 716 L157 410 L550 410 L550 716 L621 716 L621 0 L550 0 L550 349 Z "/>
<glyph glyph-name="I" unicode="I" horiz-adv-x="243" d="M157 716 L157 0 L86 0 L86 716 L157 716 Z "/>
<glyph glyph-name="J" unicode="J" horiz-adv-x="495" d="M338 716 L409 716 L409 214 Q409 -11 210 -11 Q12 -11 12 214 L12 235 L83 235 L83 214 Q83 50 210 50 Q338 50 338 214 L338 716 Z "/>
<glyph glyph-name="K" unicode="K" horiz-adv-x="661" d="M324 423 L646 0 L559 0 L273 374 L157 266 L157 0 L86 0 L86 716 L157 716 L157 346 L547 716 L640 716 L324 423 Z "/>
<glyph glyph-name="L" unicode="L" horiz-adv-x="520" d="M157 716 L157 61 L503 61 L503 0 L86 0 L86 716 L157 716 Z "/>
<glyph glyph-name="M" unicode="M" horiz-adv-x="830" d="M447 0 L382 0 L148 622 Q154 433 154 236 L154 0 L86 0 L86 716 L176 716 L416 77 L656 716 L744 716 L744 0 L676 0 L676 190 Q676 477 681 614 L447 0 Z "/>
<glyph glyph-name="N" unicode="N" horiz-adv-x="721" d="M635 0 L562 0 L145 629 Q149 561 150 341 L150 0 L86 0 L86 716 L160 716 L576 89 Q571 203 571 384 L571 716 L635 716 L635 0 Z "/>
<glyph glyph-name="O" unicode="O" horiz-adv-x="775" d="M387 732 Q547 732 639 616 Q719 515 719 358 Q719 178 616 74 Q526 -16 387 -16 Q228 -16 136 100 Q56 202 56 358 Q56 538 159 642 Q249 732 387 732 Z M387 671 Q330 671 278.5 646.5 Q227 622 192 578 Q127 496 127 358 Q127 207 208 120 Q278 45 388 45 Q513 45 585 142 Q648 226 648 358 Q648 494 583 578 Q550 621 497.5 646 Q445 671 387 671 Z "/>
<glyph glyph-name="P" unicode="P" horiz-adv-x="620" d="M157 312 L157 0 L86 0 L86 716 L359 716 Q420 716 458 705.5 Q496 695 525 669 Q584 618 584 514 Q584 410 525 359 Q496 333 458 322.5 Q420 312 359 312 L157 312 Z M157 373 L330 373 Q426 373 469 407 Q513 442 513 514 Q513 586 469 621 Q427 655 330 655 L157 655 L157 373 Z "/>
<glyph glyph-name="Q" unicode="Q" horiz-adv-x="775" d="M612 70 L702 1 L666 -46 L565 33 Q484 -16 388 -16 Q228 -16 136 100 Q56 201 56 358 Q56 538 159 642 Q249 732 387 732 Q547 732 639 616 Q719 514 719 358 Q719 175 612 70 Z M558 111 Q648 196 648 358 Q648 509 567 596 Q497 671 388 671 Q262 671 190 574 Q127 490 127 358 Q127 207 208 120 Q278 45 387 45 Q452 45 510 76 L436 134 L470 178 L558 111 Z "/>
<glyph glyph-name="R" unicode="R" horiz-adv-x="690" d="M157 325 L157 0 L86 0 L86 716 L386 716 Q447 716 485 706 Q523 696 552 672 Q611 624 611 528 Q611 465 584.5 424 Q558 383 498 355 Q544 335 564.5 299 Q585 263 590 196 L596 103 Q599 64 608 43 Q617 22 641 0 L545 0 Q530 37 527 81 L520 164 Q512 262 478 295 Q448 325 379 325 L157 325 Z M157 382 L373 382 Q422 382 451 389.5 Q480 397 501 416 Q541 452 541 519 Q541 585 501 621 Q480 640 451 647.5 Q422 655 373 655 L157 655 L157 382 Z "/>
<glyph glyph-name="S" unicode="S" horiz-adv-x="625" d="M560 517 L488 517 Q484 583 449 619 Q399 671 305 671 Q220 671 172 629 Q130 592 130 534 Q130 486 158.5 458.5 Q187 431 249 418 L383 390 Q481 369 525 327 Q575 278 575 200 Q575 95 494 36 Q423 -16 313 -16 Q163 -16 90 78 Q46 135 43 237 L115 237 Q116 137 175 88 Q227 45 317 45 Q408 45 459 91 Q504 131 504 194 Q504 251 465 282 Q430 309 355 325 L227 353 Q59 389 59 533 Q59 631 135 685 Q200 732 307 732 Q452 732 518 646 Q555 597 560 517 Z "/>
<glyph glyph-name="T" unicode="T" horiz-adv-x="541" d="M306 655 L306 0 L235 0 L235 655 L7 655 L7 716 L534 716 L534 655 L306 655 Z "/>
<glyph glyph-name="U" unicode="U" horiz-adv-x="700" d="M544 716 L615 716 L615 253 Q615 184 601 140 Q587 96 554 62 Q481 -11 351 -11 Q220 -11 148 62 Q114 96 100 140 Q86 184 86 253 L86 716 L157 716 L157 248 Q157 157 195 112 Q248 50 350 50 Q453 50 506 112 Q544 157 544 248 L544 716 Z "/>
<glyph glyph-name="V" unicode="V" horiz-adv-x="621" d="M349 0 L277 0 L14 716 L92 716 L263 223 Q275 190 294 134 L314 78 L333 138 Q346 175 362 223 L530 716 L606 716 L349 0 Z "/>
<glyph glyph-name="W" unicode="W" horiz-adv-x="897" d="M283 0 L203 0 L14 716 L87 716 L191 293 Q205 233 221 165 Q229 132 243 76 Q249 99 260 144 Q266 171 283 233 L298 293 L408 716 L490 716 L603 299 Q621 232 639 164 Q650 124 663 76 L685 169 Q703 249 713 293 L811 716 L882 716 L704 0 L623 0 L495 464 Q483 513 467 569 Q453 620 447 641 Q441 617 414 510 L399 452 L283 0 Z "/>
<glyph glyph-name="X" unicode="X" horiz-adv-x="590" d="M333 361 L579 0 L496 0 L296 309 L96 0 L11 0 L258 361 L18 716 L102 716 L297 413 L496 716 L577 716 L333 361 Z "/>
<glyph glyph-name="Y" unicode="Y" horiz-adv-x="611" d="M341 314 L341 0 L273 0 L273 314 L0 716 L84 716 L307 377 L528 716 L611 716 L341 314 Z "/>
<glyph glyph-name="Z" unicode="Z" horiz-adv-x="614" d="M574 716 L574 655 L126 61 L586 61 L586 0 L30 0 L30 44 L489 655 L82 655 L82 716 L574 716 Z "/>
<glyph glyph-name="bracketleft" unicode="[" horiz-adv-x="372" d="M303 716 L303 663 L122 663 L122 -49 L303 -49 L303 -102 L69 -102 L69 716 L303 716 Z "/>
<glyph glyph-name="backslash" unicode="\" horiz-adv-x="326" d="M66 673 L317 0 L260 0 L9 673 L66 673 Z "/>
<glyph glyph-name="bracketright" unicode="]" horiz-adv-x="372" d="M303 716 L303 -102 L69 -102 L69 -49 L250 -49 L250 663 L69 663 L69 716 L303 716 Z "/>
<glyph glyph-name="asciicircum" unicode="^" horiz-adv-x="537" d="M104 407 L37 407 L228 717 L308 717 L500 407 L432 407 L267 669 L104 407 Z "/>
<glyph glyph-name="underscore" unicode="_" horiz-adv-x="384" d="M387 -85 L387 -149 L-4 -149 L-4 -85 L387 -85 Z "/>
<glyph glyph-name="grave" unicode="`" horiz-adv-x="491" d="M207 730 L290 594 L235 594 L115 730 L207 730 Z "/>
<glyph glyph-name="a" unicode="a" horiz-adv-x="551" d="M139 361 L71 361 Q75 533 278 533 Q469 533 469 377 L469 86 Q469 42 496 42 Q505 42 527 49 L527 -2 Q497 -9 478 -9 Q443 -9 424 10.5 Q405 30 405 65 L405 77 Q340 -14 217 -14 Q132 -14 86 31 Q46 71 46 135 Q46 206 93 247 Q128 278 209 291 L362 316 Q392 321 397.5 328 Q403 335 403 368 Q403 420 382 442 Q351 476 274 476 Q203 476 170 445 Q142 417 139 361 Z M405 268 L220 237 Q114 219 114 138 Q114 90 149 63 Q179 40 228 40 Q275 40 314.5 59.5 Q354 79 379 115 Q405 153 405 210 L405 268 Z "/>
<glyph glyph-name="b" unicode="b" horiz-adv-x="589" d="M79 0 L79 716 L143 716 L143 435 Q208 533 318 533 Q426 533 487 450 Q540 379 540 265 Q540 129 469 53 Q408 -14 311 -14 Q256 -14 215.5 8.5 Q175 31 143 81 L143 0 L79 0 Z M309 476 Q226 476 182 411 Q143 354 143 260 Q143 151 193 93 Q237 43 309 43 Q393 43 437 108 Q476 165 476 260 Q476 367 425 425 Q382 476 309 476 Z "/>
<glyph glyph-name="c" unicode="c" horiz-adv-x="532" d="M492 358 L427 358 Q416 418 374 449 Q337 476 283 476 Q199 476 153 411 Q113 354 113 264 Q113 155 166 96 Q211 44 285 44 Q350 44 388 84 Q422 119 433 182 L495 182 Q479 82 417 31 Q362 -14 282 -14 Q168 -14 104 70 Q49 142 49 258 Q49 391 123 467 Q187 533 286 533 Q376 533 433 480 Q482 433 492 358 Z "/>
<glyph glyph-name="d" unicode="d" horiz-adv-x="588" d="M509 716 L509 0 L445 0 L445 75 Q411 28 371.5 7 Q332 -14 278 -14 Q168 -14 105 71 Q50 145 50 260 Q50 390 121 467 Q183 533 277 533 Q381 533 445 442 L445 716 L509 716 Z M280 476 Q197 476 153 410 Q114 353 114 260 Q114 152 164 94 Q207 44 280 44 Q363 44 407 109 Q445 165 445 260 Q445 368 395 426 Q351 476 280 476 Z "/>
<glyph glyph-name="e" unicode="e" horiz-adv-x="552" d="M502 249 L114 249 Q117 146 168 91 Q212 44 284 44 Q397 44 437 163 L502 163 Q447 -14 282 -14 Q167 -14 104 69 Q49 141 49 257 Q49 390 121 466 Q184 533 281 533 Q390 533 451 454 Q503 385 503 273 Q503 266 502 249 Z M436 301 Q431 389 386 436 Q346 476 282 476 Q210 476 166 424 Q128 379 117 301 L436 301 Z "/>
<glyph glyph-name="f" unicode="f" horiz-adv-x="268" d="M247 519 L247 467 L161 467 L161 0 L93 0 L93 467 L18 467 L18 519 L93 519 L93 606 Q93 673 125 701 Q152 725 210 725 Q229 725 247 722 L247 665 Q234 667 221 667 Q185 667 173 653.5 Q161 640 161 600 L161 519 L247 519 Z "/>
<glyph glyph-name="g" unicode="g" horiz-adv-x="590" d="M450 519 L511 519 L511 58 Q511 -9 499.5 -48 Q488 -87 460 -115 Q397 -179 281 -179 Q188 -179 133 -137 Q86 -100 80 -40 L149 -40 Q157 -121 282 -121 Q374 -121 414 -74 Q450 -33 450 49 L450 96 Q379 8 277 8 Q170 8 105 90 Q49 162 49 268 Q49 392 123 468 Q186 533 281 533 Q337 533 377 511.5 Q417 490 450 443 L450 519 Z M283 476 Q211 476 162 419 Q117 365 117 270 Q117 171 169 114 Q214 65 283 65 Q364 65 410 129 Q450 184 450 270 Q450 365 404 419 Q356 476 283 476 Z "/>
<glyph glyph-name="h" unicode="h" horiz-adv-x="557" d="M79 0 L79 716 L143 716 L143 452 Q199 533 305 533 Q400 533 447 474 Q479 434 479 345 L479 0 L415 0 L415 336 Q415 401 395 431 Q365 476 297 476 Q225 476 181 426 Q143 382 143 318 L143 0 L79 0 Z "/>
<glyph glyph-name="i" unicode="i" horiz-adv-x="222" d="M143 519 L143 0 L79 0 L79 519 L143 519 Z M143 716 L143 630 L79 630 L79 716 L143 716 Z "/>
<glyph glyph-name="j" unicode="j" horiz-adv-x="222" d="M79 519 L143 519 L143 -30 Q143 -90 132 -113 Q107 -165 31 -165 L-10 -165 L-10 -113 L15 -113 Q57 -112 69 -93 Q79 -76 79 -25 L79 519 Z M143 716 L143 630 L79 630 L79 716 L143 716 Z "/>
<glyph glyph-name="k" unicode="k" horiz-adv-x="524" d="M281 325 L502 0 L423 0 L234 285 L143 202 L143 0 L79 0 L79 716 L143 716 L143 274 L408 519 L493 519 L281 325 Z "/>
<glyph glyph-name="l" unicode="l" horiz-adv-x="225" d="M147 716 L147 0 L79 0 L79 716 L147 716 Z "/>
<glyph glyph-name="m" unicode="m" horiz-adv-x="853" d="M79 519 L143 519 L143 453 Q169 495 205.5 514 Q242 533 295 533 Q355 533 391 511 Q427 489 445 441 Q498 533 610 533 Q693 533 739 482 Q759 460 766.5 433.5 Q774 407 774 356 L774 0 L710 0 L710 356 Q710 415 686 442 Q656 476 598 476 Q523 476 486 419 Q460 379 460 302 L460 0 L396 0 L396 356 Q396 414 375 440 Q346 476 289 476 Q217 476 178 428 Q143 386 143 319 L143 0 L79 0 L79 519 Z "/>
<glyph glyph-name="n" unicode="n" horiz-adv-x="554" d="M79 519 L143 519 L143 446 Q175 493 212.5 513 Q250 533 305 533 Q395 533 442 479 Q476 439 476 354 L476 0 L412 0 L412 340 Q412 412 388 440 Q357 476 298 476 Q230 476 185 430 Q143 388 143 305 L143 0 L79 0 L79 519 Z "/>
<glyph glyph-name="o" unicode="o" horiz-adv-x="577" d="M288 533 Q403 533 469 448 Q527 374 527 260 Q527 128 453 52 Q388 -14 288 -14 Q173 -14 107 71 Q49 145 49 259 Q49 391 123 467 Q188 533 288 533 Z M288 476 Q205 476 158 409 Q117 351 117 259 Q117 154 170 95 Q215 43 288 43 Q371 43 418 110 Q459 168 459 259 Q459 364 406 424 Q360 476 288 476 Z "/>
<glyph glyph-name="p" unicode="p" horiz-adv-x="587" d="M79 519 L143 519 L143 445 Q177 491 217.5 512 Q258 533 313 533 Q422 533 483 451 Q537 379 537 266 Q537 132 466 54 Q405 -14 311 -14 Q258 -14 219.5 6.5 Q181 27 143 76 L143 -165 L79 -165 L79 519 Z M308 476 Q226 476 182 410 Q143 353 143 259 Q143 152 193 94 Q237 43 308 43 Q390 43 434 108 Q473 165 473 259 Q473 367 423 425 Q379 476 308 476 Z "/>
<glyph glyph-name="q" unicode="q" horiz-adv-x="589" d="M510 519 L510 -165 L446 -165 L446 83 Q387 -14 271 -14 Q163 -14 103 69 Q50 141 50 257 Q50 391 121 467 Q183 533 280 533 Q388 533 446 439 L446 519 L510 519 Z M280 476 Q205 476 157 414 Q114 358 114 259 Q114 154 165 95 Q210 43 280 43 Q316 43 348.5 59.5 Q381 76 403 105 Q446 161 446 259 Q446 358 403 414 Q381 443 348 459.5 Q315 476 280 476 Z "/>
<glyph glyph-name="r" unicode="r" horiz-adv-x="335" d="M79 519 L143 519 L140 426 Q168 480 202 503 Q236 526 288 526 Q299 526 310 525 L310 461 L296 461 Q222 461 177 398 Q143 351 143 274 L143 0 L79 0 L79 519 Z "/>
<glyph glyph-name="s" unicode="s" horiz-adv-x="506" d="M450 369 L385 369 Q374 428 339 454 Q308 476 253 476 Q191 476 159 449 Q131 426 131 386 Q131 329 208 311 L337 280 Q404 264 433 230 Q459 200 459 151 Q459 71 397 25 Q343 -14 258 -14 Q141 -14 85 53 Q67 76 59 101 Q51 126 49 166 L117 166 Q124 44 261 44 Q325 44 361 74 Q391 101 391 143 Q391 203 308 222 L183 252 Q63 281 63 384 Q63 458 121 498 Q172 533 255 533 Q351 533 401 485 Q445 443 450 369 Z "/>
<glyph glyph-name="t" unicode="t" horiz-adv-x="272" d="M244 519 L244 467 L163 467 L163 101 Q163 73 170 63.5 Q177 54 198 54 Q216 54 244 60 L244 1 Q205 -7 180 -7 Q133 -7 114 16 Q95 39 95 95 L95 467 L21 467 L21 519 L95 519 L95 670 L163 670 L163 519 L244 519 Z "/>
<glyph glyph-name="u" unicode="u" horiz-adv-x="554" d="M476 0 L412 0 L412 73 Q381 27 343 6.5 Q305 -14 250 -14 Q160 -14 113 40 Q79 80 79 165 L79 519 L143 519 L143 179 Q143 108 167 79 Q198 43 258 43 Q325 43 371 88 Q412 130 412 214 L412 519 L476 519 L476 0 Z "/>
<glyph glyph-name="v" unicode="v" horiz-adv-x="481" d="M273 0 L205 0 L7 519 L82 519 L181 244 Q198 198 215 151 Q230 111 242 78 Q255 110 269 151 Q280 182 303 244 L401 519 L473 519 L273 0 Z "/>
<glyph glyph-name="w" unicode="w" horiz-adv-x="710" d="M233 0 L168 0 L7 519 L78 519 L181 168 Q191 134 201 83 Q210 132 220 168 L321 519 L387 519 L483 168 Q494 126 502 83 Q513 138 522 168 L630 519 L702 519 L529 0 L467 0 L375 334 Q363 377 352 433 Q339 375 327 334 L233 0 Z "/>
<glyph glyph-name="x" unicode="x" horiz-adv-x="478" d="M277 271 L475 0 L397 0 L239 222 L83 0 L4 0 L203 271 L25 519 L102 519 L240 322 L380 519 L458 519 L277 271 Z "/>
<glyph glyph-name="y" unicode="y" horiz-adv-x="475" d="M8 519 L78 519 L200 195 Q227 126 239 71 Q249 119 280 197 L400 519 L468 519 L239 -68 Q214 -131 186.5 -155 Q159 -179 109 -179 Q91 -179 65 -174 L65 -118 Q89 -122 103 -122 Q129 -122 145.5 -107 Q162 -92 177 -55 L205 14 L8 519 Z "/>
<glyph glyph-name="z" unicode="z" horiz-adv-x="463" d="M445 56 L445 0 L31 0 L31 48 L352 463 L54 463 L54 519 L432 519 L432 469 L113 56 L445 56 Z "/>
<glyph glyph-name="braceleft" unicode="{" horiz-adv-x="382" d="M317 720 L335 696 L335 678 Q324 678 317 678 Q295 678 273 676 Q227 671 208 657 Q186 643 186 615 L186 413 Q187 328 79 311 L79 305 Q185 289 186 204 L186 2 Q186 -26 208 -40 Q228 -54 280 -60 Q300 -61 317 -61 Q330 -61 335 -61 L335 -79 L317 -103 Q311 -103 296 -103 Q217 -101 174 -72 Q134 -45 134 26 L134 191 Q134 238 100 257 Q71 274 16 274 L16 342 Q76 342 104 361 Q134 380 134 419 L134 424 L134 591 Q134 662 174 689 Q217 718 296 720 Q311 720 317 720 Z "/>
<glyph glyph-name="bar" unicode="|" horiz-adv-x="196" d="M127 688 L127 28 L69 28 L69 688 L127 688 Z "/>
<glyph glyph-name="braceright" unicode="}" horiz-adv-x="382" d="M46 696 L64 720 Q70 720 85 720 Q164 718 207 689 Q247 662 247 591 L247 424 L247 419 Q247 380 277 361 Q305 342 365 342 L365 274 Q302 274 273 252 Q247 232 247 191 L247 26 Q247 -45 207 -72 Q164 -101 85 -103 Q70 -103 64 -103 L46 -79 L46 -61 Q51 -61 64 -61 Q81 -61 101 -60 Q153 -54 173 -40 Q195 -26 195 2 L195 204 Q196 289 302 305 L302 311 Q194 328 195 413 L195 615 Q195 643 173 657 Q154 671 108 676 Q86 678 64 678 Q57 678 46 678 L46 696 Z "/>
<glyph glyph-name="asciitilde" unicode="~" horiz-adv-x="618" d="M91 265 L52 295 Q108 411 194 411 Q236 411 320 368 Q364 345 385 337.5 Q406 330 424 330 Q480 330 526 413 L565 383 Q512 268 418 268 Q394 268 372 276.5 Q350 285 282 319 Q224 349 190 349 Q137 349 91 265 Z "/>
<glyph glyph-name="Adieresis" unicode="Ä" horiz-adv-x="663" d="M487 226 L172 226 L87 0 L14 0 L291 716 L366 716 L648 0 L574 0 L487 226 Z M464 283 L326 642 L193 283 L464 283 Z M248 884 L248 791 L169 791 L169 884 L248 884 Z M493 884 L493 791 L414 791 L414 884 L493 884 Z "/>
<glyph glyph-name="Aring" unicode="Å" horiz-adv-x="663" d="M487 226 L172 226 L87 0 L14 0 L291 716 L366 716 L648 0 L574 0 L487 226 Z M464 283 L326 642 L193 283 L464 283 Z M331 916 Q366 916 390 890 Q410 868 410 837 Q410 803 384 779 Q361 759 331 759 Q296 759 272 785 Q252 807 252 837 Q252 872 278 896 Q301 916 331 916 Z M331 877 Q315 877 303 865.5 Q291 854 291 837 Q291 821 303 809.5 Q315 798 331 798 Q348 798 359.5 809.5 Q371 821 371 837 Q371 854 359.5 865.5 Q348 877 331 877 Z "/>
<glyph glyph-name="Ccedilla" unicode="Ç" horiz-adv-x="715" d="M393 -16 L373 -54 Q386 -49 396 -49 Q428 -49 448 -68 Q468 -87 468 -118 Q468 -159 438 -183 Q412 -203 371 -203 Q323 -203 274 -175 L291 -131 Q329 -154 364 -154 Q385 -154 398 -144 Q411 -134 411 -118 Q411 -104 401 -95.5 Q391 -87 376 -87 Q361 -87 341 -99 L313 -77 L347 -15 Q200 -3 123 107 Q56 204 56 358 Q56 543 155 644 Q240 732 380 732 Q498 732 576 666 Q644 608 665 513 L590 513 Q571 592 507 634 Q452 671 376 671 Q253 671 186 575 Q127 491 127 355 Q127 203 203 118 Q269 45 375 45 Q473 45 536 109 Q591 166 604 257 L674 257 Q655 124 574 53 Q503 -9 393 -16 Z "/>
<glyph glyph-name="Eacute" unicode="É" horiz-adv-x="618" d="M564 716 L564 655 L157 655 L157 396 L531 396 L531 339 L157 339 L157 61 L574 61 L574 0 L86 0 L86 716 L564 716 Z M289 771 L362 904 L448 904 L340 771 L289 771 Z "/>
<glyph glyph-name="Ntilde" unicode="Ñ" horiz-adv-x="721" d="M635 0 L562 0 L145 629 Q149 561 150 341 L150 0 L86 0 L86 716 L160 716 L576 89 Q571 203 571 384 L571 716 L635 716 L635 0 Z M468 883 L518 883 Q513 836 489 810 Q468 787 440 787 Q422 787 393 796 L312 823 Q298 827 289 827 Q263 827 257 793 L206 793 Q216 887 283 887 Q299 887 319 881 L407 853 Q426 847 435 847 Q459 847 468 883 Z "/>
<glyph glyph-name="Odieresis" unicode="Ö" horiz-adv-x="775" d="M387 732 Q547 732 639 616 Q719 515 719 358 Q719 178 616 74 Q526 -16 387 -16 Q228 -16 136 100 Q56 202 56 358 Q56 538 159 642 Q249 732 387 732 Z M387 671 Q330 671 278.5 646.5 Q227 622 192 578 Q127 496 127 358 Q127 207 208 120 Q278 45 388 45 Q513 45 585 142 Q648 226 648 358 Q648 494 583 578 Q550 621 497.5 646 Q445 671 387 671 Z M304 884 L304 791 L225 791 L225 884 L304 884 Z M550 884 L550 791 L471 791 L471 884 L550 884 Z "/>
<glyph glyph-name="Udieresis" unicode="Ü" horiz-adv-x="700" d="M544 716 L615 716 L615 253 Q615 184 601 140 Q587 96 554 62 Q481 -11 351 -11 Q220 -11 148 62 Q114 96 100 140 Q86 184 86 253 L86 716 L157 716 L157 248 Q157 157 195 112 Q248 50 350 50 Q453 50 506 112 Q544 157 544 248 L544 716 Z M267 884 L267 791 L188 791 L188 884 L267 884 Z M513 884 L513 791 L434 791 L434 884 L513 884 Z "/>
<glyph glyph-name="aacute" unicode="á" horiz-adv-x="551" d="M139 361 L71 361 Q75 533 278 533 Q469 533 469 377 L469 86 Q469 42 496 42 Q505 42 527 49 L527 -2 Q497 -9 478 -9 Q443 -9 424 10.5 Q405 30 405 65 L405 77 Q340 -14 217 -14 Q132 -14 86 31 Q46 71 46 135 Q46 206 93 247 Q128 278 209 291 L362 316 Q392 321 397.5 328 Q403 335 403 368 Q403 420 382 442 Q351 476 274 476 Q203 476 170 445 Q142 417 139 361 Z M405 268 L220 237 Q114 219 114 138 Q114 90 149 63 Q179 40 228 40 Q275 40 314.5 59.5 Q354 79 379 115 Q405 153 405 210 L405 268 Z M336 730 L428 730 L309 594 L253 594 L336 730 Z "/>
<glyph glyph-name="agrave" unicode="à" horiz-adv-x="551" d="M139 361 L71 361 Q75 533 278 533 Q469 533 469 377 L469 86 Q469 42 496 42 Q505 42 527 49 L527 -2 Q497 -9 478 -9 Q443 -9 424 10.5 Q405 30 405 65 L405 77 Q340 -14 217 -14 Q132 -14 86 31 Q46 71 46 135 Q46 206 93 247 Q128 278 209 291 L362 316 Q392 321 397.5 328 Q403 335 403 368 Q403 420 382 442 Q351 476 274 476 Q203 476 170 445 Q142 417 139 361 Z M405 268 L220 237 Q114 219 114 138 Q114 90 149 63 Q179 40 228 40 Q275 40 314.5 59.5 Q354 79 379 115 Q405 153 405 210 L405 268 Z M267 730 L350 594 L294 594 L174 730 L267 730 Z "/>
<glyph glyph-name="acircumflex" unicode="â" horiz-adv-x="551" d="M139 361 L71 361 Q75 533 278 533 Q469 533 469 377 L469 86 Q469 42 496 42 Q505 42 527 49 L527 -2 Q497 -9 478 -9 Q443 -9 424 10.5 Q405 30 405 65 L405 77 Q340 -14 217 -14 Q132 -14 86 31 Q46 71 46 135 Q46 206 93 247 Q128 278 209 291 L362 316 Q392 321 397.5 328 Q403 335 403 368 Q403 420 382 442 Q351 476 274 476 Q203 476 170 445 Q142 417 139 361 Z M405 268 L220 237 Q114 219 114 138 Q114 90 149 63 Q179 40 228 40 Q275 40 314.5 59.5 Q354 79 379 115 Q405 153 405 210 L405 268 Z M321 730 L436 594 L363 594 L284 689 L205 594 L133 594 L247 730 L321 730 Z "/>
<glyph glyph-name="adieresis" unicode="ä" horiz-adv-x="551" d="M139 361 L71 361 Q75 533 278 533 Q469 533 469 377 L469 86 Q469 42 496 42 Q505 42 527 49 L527 -2 Q497 -9 478 -9 Q443 -9 424 10.5 Q405 30 405 65 L405 77 Q340 -14 217 -14 Q132 -14 86 31 Q46 71 46 135 Q46 206 93 247 Q128 278 209 291 L362 316 Q392 321 397.5 328 Q403 335 403 368 Q403 420 382 442 Q351 476 274 476 Q203 476 170 445 Q142 417 139 361 Z M405 268 L220 237 Q114 219 114 138 Q114 90 149 63 Q179 40 228 40 Q275 40 314.5 59.5 Q354 79 379 115 Q405 153 405 210 L405 268 Z M229 709 L229 616 L161 616 L161 709 L229 709 Z M406 709 L406 616 L338 616 L338 709 L406 709 Z "/>
<glyph glyph-name="atilde" unicode="ã" horiz-adv-x="551" d="M139 361 L71 361 Q75 533 278 533 Q469 533 469 377 L469 86 Q469 42 496 42 Q505 42 527 49 L527 -2 Q497 -9 478 -9 Q443 -9 424 10.5 Q405 30 405 65 L405 77 Q340 -14 217 -14 Q132 -14 86 31 Q46 71 46 135 Q46 206 93 247 Q128 278 209 291 L362 316 Q392 321 397.5 328 Q403 335 403 368 Q403 420 382 442 Q351 476 274 476 Q203 476 170 445 Q142 417 139 361 Z M405 268 L220 237 Q114 219 114 138 Q114 90 149 63 Q179 40 228 40 Q275 40 314.5 59.5 Q354 79 379 115 Q405 153 405 210 L405 268 Z M389 702 L439 702 Q434 656 410 630 Q389 607 360 607 Q343 607 314 616 L233 642 Q221 646 210 646 Q185 646 177 613 L127 613 Q137 706 203 706 Q221 706 240 700 L328 672 Q347 666 356 666 Q380 666 389 702 Z "/>
<glyph glyph-name="aring" unicode="å" horiz-adv-x="551" d="M139 361 L71 361 Q75 533 278 533 Q469 533 469 377 L469 86 Q469 42 496 42 Q505 42 527 49 L527 -2 Q497 -9 478 -9 Q443 -9 424 10.5 Q405 30 405 65 L405 77 Q340 -14 217 -14 Q132 -14 86 31 Q46 71 46 135 Q46 206 93 247 Q128 278 209 291 L362 316 Q392 321 397.5 328 Q403 335 403 368 Q403 420 382 442 Q351 476 274 476 Q203 476 170 445 Q142 417 139 361 Z M405 268 L220 237 Q114 219 114 138 Q114 90 149 63 Q179 40 228 40 Q275 40 314.5 59.5 Q354 79 379 115 Q405 153 405 210 L405 268 Z M288 766 Q328 766 354 737 Q377 712 377 677 Q377 637 348 610 Q322 587 288 587 Q248 587 221 617 Q198 642 198 677 Q198 716 228 743 Q253 766 288 766 Z M288 727 Q267 727 252 712.5 Q237 698 237 677 Q237 656 252 641 Q267 626 288 626 Q309 626 323.5 641 Q338 656 338 677 Q338 698 323.5 712.5 Q309 727 288 727 Z "/>
<glyph glyph-name="ccedilla" unicode="ç" horiz-adv-x="532" d="M298 -14 L279 -51 Q291 -47 300 -47 Q332 -47 350.5 -65 Q369 -83 369 -112 Q369 -151 340 -174 Q316 -193 277 -193 Q232 -193 185 -166 L201 -124 Q237 -146 271 -146 Q291 -146 303 -136.5 Q315 -127 315 -113 Q315 -83 282 -83 Q266 -83 249 -94 L222 -73 L255 -13 Q151 -1 97 79 Q49 149 49 257 Q49 391 123 467 Q186 533 286 533 Q376 533 433 480 Q482 433 492 358 L427 358 Q416 418 374 449 Q337 476 283 476 Q199 476 153 411 Q113 354 113 263 Q113 154 166 94 Q212 42 285 42 Q349 42 388 83 Q422 118 433 181 L495 181 Q479 86 422 35 Q372 -10 298 -14 Z "/>
<glyph glyph-name="eacute" unicode="é" horiz-adv-x="552" d="M502 249 L114 249 Q117 146 168 91 Q212 44 284 44 Q397 44 437 163 L502 163 Q447 -14 282 -14 Q167 -14 104 69 Q49 141 49 257 Q49 390 121 466 Q184 533 281 533 Q390 533 451 454 Q503 385 503 273 Q503 266 502 249 Z M436 301 Q431 389 386 436 Q346 476 282 476 Q210 476 166 424 Q128 379 117 301 L436 301 Z M331 730 L424 730 L304 594 L249 594 L331 730 Z "/>
<glyph glyph-name="egrave" unicode="è" horiz-adv-x="552" d="M502 249 L114 249 Q117 146 168 91 Q212 44 284 44 Q397 44 437 163 L502 163 Q447 -14 282 -14 Q167 -14 104 69 Q49 141 49 257 Q49 390 121 466 Q184 533 281 533 Q390 533 451 454 Q503 385 503 273 Q503 266 502 249 Z M436 301 Q431 389 386 436 Q346 476 282 476 Q210 476 166 424 Q128 379 117 301 L436 301 Z M264 730 L346 594 L291 594 L171 730 L264 730 Z "/>
<glyph glyph-name="ecircumflex" unicode="ê" horiz-adv-x="552" d="M502 249 L114 249 Q117 146 168 91 Q212 44 284 44 Q397 44 437 163 L502 163 Q447 -14 282 -14 Q167 -14 104 69 Q49 141 49 257 Q49 390 121 466 Q184 533 281 533 Q390 533 451 454 Q503 385 503 273 Q503 266 502 249 Z M436 301 Q431 389 386 436 Q346 476 282 476 Q210 476 166 424 Q128 379 117 301 L436 301 Z M324 730 L439 594 L366 594 L287 689 L208 594 L136 594 L250 730 L324 730 Z "/>
<glyph glyph-name="edieresis" unicode="ë" horiz-adv-x="552" d="M502 249 L114 249 Q117 146 168 91 Q212 44 284 44 Q397 44 437 163 L502 163 Q447 -14 282 -14 Q167 -14 104 69 Q49 141 49 257 Q49 390 121 466 Q184 533 281 533 Q390 533 451 454 Q503 385 503 273 Q503 266 502 249 Z M436 301 Q431 389 386 436 Q346 476 282 476 Q210 476 166 424 Q128 379 117 301 L436 301 Z M234 709 L234 616 L166 616 L166 709 L234 709 Z M411 709 L411 616 L343 616 L343 709 L411 709 Z "/>
<glyph glyph-name="iacute" unicode="í" horiz-adv-x="222" d="M143 519 L143 0 L79 0 L79 519 L143 519 Z M167 730 L259 730 L140 594 L84 594 L167 730 Z "/>
<glyph glyph-name="igrave" unicode="ì" horiz-adv-x="222" d="M143 519 L143 0 L79 0 L79 519 L143 519 Z M72 730 L155 594 L100 594 L-20 730 L72 730 Z "/>
<glyph glyph-name="icircumflex" unicode="î" horiz-adv-x="222" d="M142 519 L142 0 L78 0 L78 519 L142 519 Z M147 730 L262 594 L189 594 L110 689 L31 594 L-41 594 L73 730 L147 730 Z "/>
<glyph glyph-name="idieresis" unicode="ï" horiz-adv-x="222" d="M143 519 L143 0 L79 0 L79 519 L143 519 Z M62 709 L62 616 L1 616 L1 709 L62 709 Z M222 709 L222 616 L161 616 L161 709 L222 709 Z "/>
<glyph glyph-name="ntilde" unicode="ñ" horiz-adv-x="554" d="M79 519 L143 519 L143 446 Q175 493 212.5 513 Q250 533 305 533 Q395 533 442 479 Q476 439 476 354 L476 0 L412 0 L412 340 Q412 412 388 440 Q357 476 298 476 Q230 476 185 430 Q143 388 143 305 L143 0 L79 0 L79 519 Z M392 702 L442 702 Q437 656 413 630 Q392 607 363 607 Q346 607 318 616 L236 642 Q224 646 213 646 Q188 646 181 613 L131 613 Q140 706 206 706 Q224 706 243 700 L331 672 Q350 666 359 666 Q384 666 392 702 Z "/>
<glyph glyph-name="oacute" unicode="ó" horiz-adv-x="577" d="M288 533 Q403 533 469 448 Q527 374 527 260 Q527 128 453 52 Q388 -14 288 -14 Q173 -14 107 71 Q49 145 49 259 Q49 391 123 467 Q188 533 288 533 Z M288 476 Q205 476 158 409 Q117 351 117 259 Q117 154 170 95 Q215 43 288 43 Q371 43 418 110 Q459 168 459 259 Q459 364 406 424 Q360 476 288 476 Z M345 730 L437 730 L318 594 L262 594 L345 730 Z "/>
<glyph glyph-name="ograve" unicode="ò" horiz-adv-x="577" d="M288 533 Q403 533 469 448 Q527 374 527 260 Q527 128 453 52 Q388 -14 288 -14 Q173 -14 107 71 Q49 145 49 259 Q49 391 123 467 Q188 533 288 533 Z M288 476 Q205 476 158 409 Q117 351 117 259 Q117 154 170 95 Q215 43 288 43 Q371 43 418 110 Q459 168 459 259 Q459 364 406 424 Q360 476 288 476 Z M266 730 L349 594 L293 594 L173 730 L266 730 Z "/>
<glyph glyph-name="ocircumflex" unicode="ô" horiz-adv-x="577" d="M288 533 Q403 533 469 448 Q527 374 527 260 Q527 128 453 52 Q388 -14 288 -14 Q173 -14 107 71 Q49 145 49 259 Q49 391 123 467 Q188 533 288 533 Z M288 476 Q205 476 158 409 Q117 351 117 259 Q117 154 170 95 Q215 43 288 43 Q371 43 418 110 Q459 168 459 259 Q459 364 406 424 Q360 476 288 476 Z M332 730 L447 594 L374 594 L295 689 L216 594 L144 594 L258 730 L332 730 Z "/>
<glyph glyph-name="odieresis" unicode="ö" horiz-adv-x="577" d="M288 533 Q403 533 469 448 Q527 374 527 260 Q527 128 453 52 Q388 -14 288 -14 Q173 -14 107 71 Q49 145 49 259 Q49 391 123 467 Q188 533 288 533 Z M288 476 Q205 476 158 409 Q117 351 117 259 Q117 154 170 95 Q215 43 288 43 Q371 43 418 110 Q459 168 459 259 Q459 364 406 424 Q360 476 288 476 Z M238 709 L238 616 L170 616 L170 709 L238 709 Z M415 709 L415 616 L347 616 L347 709 L415 709 Z "/>
<glyph glyph-name="otilde" unicode="õ" horiz-adv-x="577" d="M288 533 Q403 533 469 448 Q527 374 527 260 Q527 128 453 52 Q388 -14 288 -14 Q173 -14 107 71 Q49 145 49 259 Q49 391 123 467 Q188 533 288 533 Z M288 476 Q205 476 158 409 Q117 351 117 259 Q117 154 170 95 Q215 43 288 43 Q371 43 418 110 Q459 168 459 259 Q459 364 406 424 Q360 476 288 476 Z M399 702 L450 702 Q444 655 420 629 Q400 607 371 607 Q354 607 325 616 L244 642 Q232 646 221 646 Q195 646 188 613 L138 613 Q147 706 213 706 Q232 706 250 700 L339 672 Q358 666 366 666 Q391 666 399 702 Z "/>
<glyph glyph-name="uacute" unicode="ú" horiz-adv-x="554" d="M476 0 L412 0 L412 73 Q381 27 343 6.5 Q305 -14 250 -14 Q160 -14 113 40 Q79 80 79 165 L79 519 L143 519 L143 179 Q143 108 167 79 Q198 43 258 43 Q325 43 371 88 Q412 130 412 214 L412 519 L476 519 L476 0 Z M333 730 L426 730 L306 594 L251 594 L333 730 Z "/>
<glyph glyph-name="ugrave" unicode="ù" horiz-adv-x="554" d="M476 0 L412 0 L412 73 Q381 27 343 6.5 Q305 -14 250 -14 Q160 -14 113 40 Q79 80 79 165 L79 519 L143 519 L143 179 Q143 108 167 79 Q198 43 258 43 Q325 43 371 88 Q412 130 412 214 L412 519 L476 519 L476 0 Z M260 730 L343 594 L287 594 L167 730 L260 730 Z "/>
<glyph glyph-name="ucircumflex" unicode="û" horiz-adv-x="554" d="M476 0 L412 0 L412 73 Q381 27 343 6.5 Q305 -14 250 -14 Q160 -14 113 40 Q79 80 79 165 L79 519 L143 519 L143 179 Q143 108 167 79 Q198 43 258 43 Q325 43 371 88 Q412 130 412 214 L412 519 L476 519 L476 0 Z M319 730 L433 594 L360 594 L282 689 L203 594 L131 594 L245 730 L319 730 Z "/>
<glyph glyph-name="udieresis" unicode="ü" horiz-adv-x="554" d="M476 0 L412 0 L412 73 Q381 27 343 6.5 Q305 -14 250 -14 Q160 -14 113 40 Q79 80 79 165 L79 519 L143 519 L143 179 Q143 108 167 79 Q198 43 258 43 Q325 43 371 88 Q412 130 412 214 L412 519 L476 519 L476 0 Z M223 709 L223 616 L155 616 L155 709 L223 709 Z M400 709 L400 616 L332 616 L332 709 L400 709 Z "/>
<glyph glyph-name="degree" unicode="°" horiz-adv-x="360" d="M41 544 Q41 601 82 642 Q122 683 179 683 Q236 683 276 642 Q318 602 318 544 Q318 488 276 448 Q237 407 179 407 Q121 407 82 448 Q41 488 41 544 Z M82 544 Q82 502 111 472 Q138 442 179 442 Q220 442 249 472 Q277 501 277 544 Q277 588 249 618 Q219 649 179 649 Q139 649 111 618 Q82 587 82 544 Z "/>
<glyph glyph-name="cent" unicode="¢" horiz-adv-x="541" d="M312 683 L312 607 Q348 606 381 597 Q405 591 425 580 L408 526 Q378 537 356 543 Q326 550 303 550 Q237 550 201 515 Q151 467 151 342 Q151 226 196 176 Q231 137 297 138 Q334 139 371 147 Q423 158 448 170 L448 142 L424 113 Q383 89 312 82 L312 -9 L254 -9 L254 86 Q179 98 137 157 Q92 220 92 342 Q92 466 137 532 Q177 591 254 604 L254 683 L312 683 Z "/>
<glyph glyph-name="sterling" unicode="£" horiz-adv-x="639" d="M367 680 Q433 680 491 651 L491 597 Q433 632 367 632 Q311 632 280 601 Q246 567 246 502 L246 351 L428 351 L428 307 L246 307 L246 187 Q246 119 218 71 Q279 77 328 77 Q449 77 547 41 L547 24 L527 0 Q415 32 321 32 Q227 32 92 0 L92 48 Q135 55 161 89 Q189 124 189 186 L189 307 L93 307 L93 351 L189 351 L189 521 Q189 589 239 635 Q289 680 367 680 Z "/>
<glyph glyph-name="section" unicode="§" horiz-adv-x="624" d="M492 557 L420 557 Q407 666 308 666 Q260 666 232 638 Q207 614 207 578 Q207 550 222.5 529.5 Q238 509 277 486 L420 401 Q490 360 518 322.5 Q546 285 546 234 Q546 142 450 93 Q493 39 493 -15 Q493 -90 434 -138 Q383 -179 311 -179 Q260 -179 218 -159 Q176 -139 151 -103 Q123 -63 120 5 L191 5 Q197 -56 233 -87 Q264 -115 311 -115 Q362 -115 394 -84 Q422 -56 422 -18 Q422 13 404.5 35.5 Q387 58 343 84 L217 159 Q138 206 106 250 Q79 287 79 335 Q79 426 173 477 Q136 522 136 577 Q136 650 190 693 Q237 730 309 730 Q394 730 443 679 Q485 634 492 557 Z M216 439 Q150 404 150 343 Q150 302 184 270 Q214 242 297 194 L406 132 Q475 169 475 229 Q475 261 453 287 Q431 313 378 344 L216 439 Z "/>
<glyph glyph-name="bullet" unicode="•" horiz-adv-x="320" d="M160 237 Q193 237 215 212 Q235 190 235 162 Q235 128 210 106 Q188 86 160 86 Q126 86 104 111 Q84 133 84 162 Q84 195 109 217 Q131 237 160 237 Z "/>
<glyph glyph-name="paragraph" unicode="¶" horiz-adv-x="581" d="M241 -122 L241 335 Q202 335 186.5 337 Q171 339 148 348 Q86 369 53 421 Q25 466 25 524 Q25 580 52 626 Q76 666 115 688 Q166 716 256 716 L506 716 L506 683 L442 683 L442 -122 L402 -122 L402 683 L281 683 L281 -122 L241 -122 Z "/>
<glyph glyph-name="germandbls" unicode="ß" horiz-adv-x="545" d="M218 376 L218 428 L244 428 Q322 428 360 463 Q393 494 393 550 Q393 606 354 639 Q320 668 268 668 Q213 668 178 635 Q158 616 150.5 588.5 Q143 561 143 509 L143 0 L79 0 L79 519 Q79 580 92 617 Q105 654 135 680 Q188 725 272 725 Q361 725 412 672 Q457 625 457 554 Q457 458 367 408 Q437 383 469 332 Q496 287 496 218 Q496 107 430 46 Q373 -7 280 -7 Q247 -7 203 0 L203 61 Q241 50 272 50 Q350 50 394 101 Q432 145 432 215 Q432 376 246 376 L218 376 Z "/>
<glyph glyph-name="registered" unicode="®" horiz-adv-x="784" d="M392 683 Q485 683 567 636 Q645 590 691 512 Q738 429 738 337 Q738 244 691 162 Q646 84 567 38 Q486 -9 392 -9 Q298 -9 218 38 Q138 84 93 162 Q46 243 46 337 Q46 430 93 512 Q138 590 218 636 Q299 683 392 683 Z M392 641 Q267 641 178 552 Q89 463 89 337 Q89 210 178 122 Q266 33 392 33 Q518 33 607 122 Q696 211 696 337 Q696 462 607 552 Q517 641 392 641 Z M243 539 L387 539 Q462 539 499 493 Q529 457 529 401 Q529 331 465 298 L543 154 L516 133 L483 133 L408 280 L302 280 L302 133 L243 133 L243 539 Z M385 477 L302 477 L302 343 L392 343 Q427 343 446 361 Q467 382 467 415 Q467 436 458 451 Q440 477 385 477 Z "/>
<glyph glyph-name="copyright" unicode="©" horiz-adv-x="784" d="M392 683 Q485 683 567 636 Q645 590 691 512 Q738 429 738 337 Q738 244 691 162 Q646 84 567 38 Q486 -9 392 -9 Q298 -9 218 38 Q138 84 93 162 Q46 243 46 337 Q46 430 93 512 Q138 590 218 636 Q299 683 392 683 Z M392 641 Q267 641 178 552 Q89 463 89 337 Q89 210 178 122 Q266 33 392 33 Q518 33 607 122 Q696 211 696 337 Q696 462 607 552 Q517 641 392 641 Z M413 545 Q468 545 518 520 L492 471 Q444 495 410 495 Q346 495 312 449 Q283 408 283 337 Q283 270 305 228 Q337 179 410 179 Q429 179 458 185 L501 196 L501 177 L468 136 Q450 128 407 128 Q317 128 271 186 Q225 241 225 338 Q225 431 275 487 Q326 545 413 545 Z "/>
<glyph glyph-name="trademark" unicode="™" horiz-adv-x="645" d="M245 673 L245 633 L153 633 L153 363 L126 341 L104 341 L104 633 L14 633 L14 673 L245 673 Z M600 673 L600 363 L573 341 L551 341 L551 598 L550 598 L455 341 L419 341 L327 598 L327 341 L280 341 L280 673 L351 673 L439 410 L533 673 L600 673 Z "/>
<glyph glyph-name="acute" unicode="´" horiz-adv-x="491" d="M277 730 L369 730 L250 594 L194 594 L277 730 Z "/>
<glyph glyph-name="dieresis" unicode="¨" horiz-adv-x="491" d="M191 709 L191 616 L123 616 L123 709 L191 709 Z M368 709 L368 616 L300 616 L300 709 L368 709 Z "/>
<glyph glyph-name="AE" unicode="Æ" horiz-adv-x="970" d="M438 221 L168 221 L85 0 L14 0 L290 716 L916 716 L916 655 L509 655 L509 396 L883 396 L883 339 L509 339 L509 61 L925 61 L925 0 L438 0 L438 221 Z M438 279 L438 655 L332 655 L190 279 L438 279 Z "/>
<glyph glyph-name="Oslash" unicode="Ø" horiz-adv-x="775" d="M162 71 L84 -16 L46 19 L128 111 Q56 207 56 358 Q56 538 159 642 Q249 732 387 732 Q521 732 608 649 L690 741 L729 706 L643 610 Q719 512 719 358 Q719 178 616 74 Q526 -16 388 -16 Q252 -16 162 71 Z M206 121 Q241 85 288.5 65 Q336 45 388 45 Q513 45 585 142 Q648 227 648 358 Q648 478 597 558 L206 121 Z M175 163 L564 599 Q490 671 387 671 Q329 671 277.5 646 Q226 621 192 578 Q127 495 127 357 Q127 245 175 163 Z "/>
<glyph glyph-name="plusminus" unicode="±" horiz-adv-x="537" d="M27 396 L248 396 L248 602 L289 602 L289 396 L509 396 L509 357 L289 357 L289 154 L248 154 L248 357 L27 357 L27 396 Z M27 105 L509 105 L509 66 L27 66 L27 105 Z "/>
<glyph glyph-name="lessequal" unicode="≤" horiz-adv-x="504" d="M460 551 L460 493 L107 318 L460 162 L460 104 L41 296 L41 333 L460 551 Z M462 53 L462 0 L43 0 L43 53 L462 53 Z "/>
<glyph glyph-name="greaterequal" unicode="≥" horiz-adv-x="503" d="M41 551 L460 333 L460 296 L41 104 L41 162 L395 318 L41 493 L41 551 Z M461 53 L461 0 L42 0 L42 53 L461 53 Z "/>
<glyph glyph-name="yen" unicode="¥" horiz-adv-x="516" d="M488 673 L317 315 L438 315 L438 261 L286 261 L286 183 L438 183 L438 130 L286 130 L286 23 L257 0 L229 0 L229 130 L79 130 L79 183 L229 183 L229 261 L79 261 L79 315 L196 315 L28 673 L97 673 L257 302 L419 673 L488 673 Z "/>
<glyph glyph-name="mu" unicode="µ" horiz-adv-x="537" d="M59 -177 L59 515 L119 515 L119 219 Q119 162 127 134 Q135 106 158 82 Q201 38 262 38 Q336 38 380 99 Q418 151 418 230 L418 515 L478 515 L478 0 L418 0 L418 104 Q370 -14 261 -14 Q213 -14 179.5 5.5 Q146 25 119 68 L119 -177 L59 -177 Z "/>
<glyph glyph-name="ordfeminine" unicode="ª" horiz-adv-x="361" d="M99 499 L48 499 Q50 608 181 608 Q304 608 304 512 L304 341 Q304 318 316 318 Q323 318 340 324 L340 286 Q318 281 306 281 Q262 281 255 323 Q228 297 204 287.5 Q180 278 143 278 Q89 278 59 306 Q33 330 33 369 Q33 449 137 465 L232 479 Q249 483 251.5 486 Q254 489 254 506 Q254 539 237 553 Q220 567 178 567 Q137 567 119 551.5 Q101 536 99 499 Z M255 444 L145 426 Q84 416 84 371 Q84 346 101.5 331.5 Q119 317 150 317 Q201 317 230 347 Q255 373 255 413 L255 444 Z "/>
<glyph glyph-name="ordmasculine" unicode="º" horiz-adv-x="376" d="M188 608 Q262 608 304 557 Q341 512 341 443 Q341 363 294 318 Q253 278 189 278 Q115 278 73 329 Q36 374 36 443 Q36 523 83 568 Q124 608 188 608 Z M188 567 Q139 567 111 529 Q87 496 87 443 Q87 382 118 348 Q145 319 189 319 Q238 319 266 357 Q290 390 290 443 Q290 503 259 537 Q232 567 188 567 Z "/>
<glyph glyph-name="ae" unicode="æ" horiz-adv-x="873" d="M130 362 L66 362 Q76 450 136 494 Q188 533 270 533 Q328 533 366 513.5 Q404 494 437 447 Q477 493 516 513 Q555 533 605 533 Q681 533 733 493 Q779 458 802 397 Q823 338 824 246 L446 246 Q449 158 471 121 Q491 85 527.5 64.5 Q564 44 607 44 Q665 44 707 81 Q744 112 757 161 L820 161 Q757 -14 602 -14 Q540 -14 495 13.5 Q450 41 416 100 Q378 39 333 12.5 Q288 -14 222 -14 Q135 -14 87 33 Q46 73 46 139 Q46 188 73 226 Q96 258 133 272 Q177 289 289 301 Q367 309 379 318 Q385 322 387 330.5 Q389 339 389 362 Q389 398 380 418 Q355 476 265 476 Q139 476 130 362 Z M385 267 Q381 266 372 263 Q346 257 301 251 Q201 239 167 224 Q114 200 114 138 Q114 90 147 65 Q177 43 226 43 Q303 43 347 88 Q387 128 387 212 L385 267 Z M758 298 Q755 389 710 435 Q670 476 604 476 Q552 476 511 448 Q475 424 460 387 Q448 355 446 298 L758 298 Z "/>
<glyph glyph-name="oslash" unicode="ø" horiz-adv-x="577" d="M135 41 L78 -22 L43 9 L103 77 Q50 148 50 260 Q50 391 124 467 Q189 533 289 533 Q388 533 452 469 L500 522 L534 490 L482 432 Q528 360 528 259 Q528 128 454 52 Q389 -14 289 -14 Q198 -14 135 41 Z M176 88 Q221 43 289 43 Q372 43 419 110 Q460 168 460 260 Q460 326 436 380 L176 88 Z M148 127 L410 422 Q362 476 289 476 Q206 476 159 409 Q118 351 118 259 Q118 182 148 127 Z "/>
<glyph glyph-name="questiondown" unicode="¿" horiz-adv-x="503" d="M220 340 L284 340 Q285 323 285 315 Q285 256 265.5 216 Q246 176 196 131 Q141 82 122.5 52.5 Q104 23 104 -17 Q104 -80 148 -118 Q186 -151 242 -151 Q296 -151 336 -120 Q371 -94 384 -52 Q393 -23 393 23 L463 23 Q464 12 464 5 Q464 -99 394 -160 Q333 -212 239 -212 Q140 -212 82 -153 Q32 -101 32 -23 Q32 26 52.5 63.5 Q73 101 126 150 Q174 194 184.5 205 Q195 216 203 232 Q221 265 221 319 Q221 327 220 340 Z M207 426 L207 519 L293 519 L293 426 L207 426 Z "/>
<glyph glyph-name="exclamdown" unicode="¡" horiz-adv-x="258" d="M104 340 L153 340 L166 41 L166 -197 L91 -197 L91 41 L104 340 Z M86 426 L86 519 L172 519 L172 426 L86 426 Z "/>
<glyph glyph-name="logicalnot" unicode="¬" horiz-adv-x="537" d="M433 0 L433 234 L36 234 L36 295 L501 295 L501 0 L433 0 Z "/>
<glyph glyph-name="florin" unicode="ƒ" horiz-adv-x="268" d="M7 -188 L7 -131 Q21 -133 34 -133 Q68 -133 80.5 -119 Q93 -105 93 -66 L93 467 L19 467 L19 519 L93 519 L93 606 Q93 673 125 701 Q153 725 211 725 Q230 725 248 722 L248 665 Q235 667 222 667 Q186 667 173.5 653.5 Q161 640 161 600 L161 519 L248 519 L248 467 L161 467 L161 -78 Q161 -80 156 -120 Q152 -152 121.5 -171.5 Q91 -191 44 -191 Q25 -191 7 -188 Z "/>
<glyph glyph-name="guillemotleft" unicode="«" horiz-adv-x="405" d="M191 476 L214 457 L90 267 L214 77 L192 58 L176 58 L37 262 L37 270 L176 476 L191 476 Z M345 476 L368 457 L244 267 L368 77 L345 58 L330 58 L191 262 L191 270 L330 476 L345 476 Z "/>
<glyph glyph-name="guillemotright" unicode="»" horiz-adv-x="405" d="M60 476 L75 476 L214 270 L214 262 L75 58 L60 58 L37 77 L161 267 L37 457 L60 476 Z M214 476 L229 476 L368 270 L368 262 L229 58 L213 58 L191 77 L315 267 L191 457 L214 476 Z "/>
<glyph glyph-name="ellipsis" unicode="…" horiz-adv-x="476" d="M89 70 Q104 70 115 59 Q126 48 126 32 Q126 17 115 6 Q104 -5 89 -5 Q73 -5 62 6 Q51 17 51 32 Q51 48 62 59 Q73 70 89 70 Z M237 70 Q252 70 263 59 Q274 48 274 32 Q274 17 263 6 Q252 -5 237 -5 Q221 -5 210 6 Q199 17 199 32 Q199 48 210 59 Q221 70 237 70 Z M388 70 Q403 70 414 59 Q425 48 425 32 Q425 17 414 6 Q403 -5 388 -5 Q372 -5 361 6 Q350 17 350 32 Q350 48 361 59 Q372 70 388 70 Z "/>
<glyph glyph-name="Agrave" unicode="À" horiz-adv-x="663" d="M487 226 L172 226 L87 0 L14 0 L291 716 L366 716 L648 0 L574 0 L487 226 Z M464 283 L326 642 L193 283 L464 283 Z M368 771 L316 771 L209 904 L295 904 L368 771 Z "/>
<glyph glyph-name="Atilde" unicode="Ã" horiz-adv-x="663" d="M487 226 L172 226 L87 0 L14 0 L291 716 L366 716 L648 0 L574 0 L487 226 Z M464 283 L326 642 L193 283 L464 283 Z M437 883 L487 883 Q482 837 458 810 Q437 787 409 787 Q391 787 362 796 L281 823 Q267 827 258 827 Q233 827 225 793 L175 793 Q185 887 252 887 Q268 887 288 881 L376 853 Q395 847 404 847 Q428 847 437 883 Z "/>
<glyph glyph-name="Otilde" unicode="Õ" horiz-adv-x="775" d="M387 732 Q547 732 639 616 Q719 515 719 358 Q719 178 616 74 Q526 -16 387 -16 Q228 -16 136 100 Q56 202 56 358 Q56 538 159 642 Q249 732 387 732 Z M387 671 Q330 671 278.5 646.5 Q227 622 192 578 Q127 496 127 358 Q127 207 208 120 Q278 45 388 45 Q513 45 585 142 Q648 226 648 358 Q648 494 583 578 Q550 621 497.5 646 Q445 671 387 671 Z M493 883 L543 883 Q538 836 514 810 Q494 787 465 787 Q447 787 419 796 L338 823 Q324 827 315 827 Q289 827 282 793 L232 793 Q241 887 307 887 Q324 887 344 881 L432 853 Q452 847 460 847 Q485 847 493 883 Z "/>
<glyph glyph-name="endash" unicode="–" horiz-adv-x="470" d="M433 244 L433 191 L37 191 L37 244 L433 244 Z "/>
<glyph glyph-name="emdash" unicode="—" horiz-adv-x="941" d="M904 244 L904 191 L37 191 L37 244 L904 244 Z "/>
<glyph glyph-name="quotedblleft" unicode="“" horiz-adv-x="331" d="M128 716 L143 704 Q118 676 102 638 Q91 609 91 590 Q95 591 99 591 Q106 591 112 589 Q120 586 124 581 Q131 575 133 567 Q136 561 136 553 Q136 544 132 535 Q123 513 98 513 Q80 513 68 526 Q57 538 54 558 Q52 569 52 580 Q52 600 58 621 Q72 675 110 716 L128 716 Z M267 716 L282 704 Q256 676 241 638 Q229 609 229 590 Q234 591 238 591 Q245 591 251 589 Q259 586 264 581 Q269 575 272 567 Q275 561 275 553 Q275 544 271 535 Q262 513 237 513 Q218 513 207 526 Q196 538 193 558 Q191 569 191 580 Q191 600 197 621 Q211 675 248 716 L267 716 Z "/>
<glyph glyph-name="quotedblright" unicode="”" horiz-adv-x="322" d="M96 716 Q114 716 126 703 Q137 691 140 671 Q142 660 142 649 Q142 629 136 608 Q122 554 85 513 L66 513 L51 525 Q76 553 92 591 Q103 621 103 639 Q99 638 95 638 Q76 638 66 652 Q63 657 61 662 Q58 668 58 676 Q58 685 62 694 Q71 716 96 716 Z M225 716 Q244 716 256 703 Q267 691 270 671 Q272 661 272 649 Q272 629 266 608 Q252 554 214 513 L195 513 L180 525 Q206 553 221 591 Q233 621 233 639 Q228 638 224 638 Q206 638 196 651 Q192 656 190 662 Q187 668 187 676 Q187 685 191 694 Q200 716 225 716 Z "/>
<glyph glyph-name="quoteleft" unicode="‘" horiz-adv-x="192" d="M128 716 L143 704 Q118 676 102 638 Q91 609 91 590 Q95 591 99 591 Q120 591 130 574 Q135 566 136 555 Q136 544 132 536 Q123 513 98 513 Q79 513 68 526 Q57 538 54 558 Q52 569 52 580 Q52 600 58 621 Q72 675 110 716 L128 716 Z "/>
<glyph glyph-name="quoteright" unicode="’" horiz-adv-x="192" d="M96 716 Q115 716 126 703 Q137 691 140 671 Q142 660 142 649 Q142 629 136 608 Q122 554 85 513 L66 513 L51 525 Q76 553 92 591 Q103 621 103 639 Q99 638 95 638 Q77 638 67 650 Q62 656 60 667 Q59 672 59 676 Q59 685 62 693 Q72 716 96 716 Z "/>
<glyph glyph-name="divide" unicode="÷" horiz-adv-x="502" d="M250 401 Q265 401 276 390 Q287 379 287 364 Q287 348 276 337 Q265 326 250 326 Q234 326 223 337 Q212 348 212 364 Q212 379 223 390 Q234 401 250 401 Z M460 244 L460 191 L41 191 L41 244 L460 244 Z M250 110 Q265 110 276 99 Q287 88 287 73 Q287 57 276 46 Q265 35 250 35 Q234 35 223 46 Q212 57 212 73 Q212 88 223 99 Q234 110 250 110 Z "/>
<glyph glyph-name="ydieresis" unicode="ÿ" horiz-adv-x="475" d="M8 519 L78 519 L200 195 Q227 126 239 71 Q249 119 280 197 L400 519 L468 519 L239 -68 Q214 -131 186.5 -155 Q159 -179 109 -179 Q91 -179 65 -174 L65 -118 Q89 -122 103 -122 Q129 -122 145.5 -107 Q162 -92 177 -55 L205 14 L8 519 Z M190 709 L190 616 L122 616 L122 709 L190 709 Z M367 709 L367 616 L299 616 L299 709 L367 709 Z "/>
<glyph glyph-name="fraction" unicode="⁄" horiz-adv-x="505" d="M473 673 L76 0 L23 0 L419 673 L473 673 Z "/>
<glyph glyph-name="currency" unicode="¤" horiz-adv-x="502" d="M81 333 Q81 387 114 435 L55 495 L89 529 L147 469 Q195 503 251 503 Q308 503 352 469 L412 529 L446 495 L386 436 Q420 387 420 333 Q420 273 386 230 L445 172 L412 139 L352 198 Q306 164 251 164 Q194 164 148 199 L89 140 L56 172 L114 231 Q81 277 81 333 Z M128 333 Q128 282 163 247 Q199 211 250 211 Q302 211 338 247 Q374 283 374 333 Q374 384 338 421 Q302 457 250 457 Q199 457 163 421 Q128 386 128 333 Z "/>
<glyph glyph-name="guilsinglleft" unicode="‹" horiz-adv-x="251" d="M191 476 L214 457 L90 267 L214 77 L192 58 L176 58 L37 262 L37 270 L176 476 L191 476 Z "/>
<glyph glyph-name="guilsinglright" unicode="›" horiz-adv-x="251" d="M60 476 L75 476 L214 270 L214 262 L75 58 L60 58 L37 77 L161 267 L37 457 L60 476 Z "/>
<glyph glyph-name="periodcentered" unicode="·" horiz-adv-x="249" d="M79 318 L170 318 L170 211 L79 211 L79 318 Z "/>
<glyph glyph-name="quotesinglbase" unicode="‚" horiz-adv-x="192" d="M96 97 Q115 97 126 84 Q137 72 140 52 Q142 41 142 30 Q142 10 136 -11 Q122 -65 85 -106 L66 -106 L51 -94 Q76 -65 92 -28 Q103 2 103 20 Q99 19 95 19 Q77 19 67 31 Q62 37 60 48 Q59 53 59 57 Q59 66 62 74 Q72 97 96 97 Z "/>
<glyph glyph-name="quotedblbase" unicode="„" horiz-adv-x="322" d="M96 97 Q114 97 126 84 Q137 72 140 52 Q142 41 142 30 Q142 10 136 -11 Q122 -65 85 -106 L66 -106 L51 -94 Q76 -65 92 -28 Q103 2 103 20 Q99 19 94 19 Q75 19 65 34 Q63 37 61 43 Q58 49 58 57 Q58 66 62 75 Q71 97 96 97 Z M225 97 Q244 97 256 84 Q267 72 270 52 Q272 42 272 30 Q272 10 266 -11 Q252 -65 214 -106 L195 -106 L180 -94 Q206 -65 221 -28 Q233 2 233 20 Q228 19 224 19 Q206 19 196 32 Q191 38 190 43 Q187 49 187 57 Q187 66 191 74 Q200 97 225 97 Z "/>
<glyph glyph-name="Acircumflex" unicode="Â" horiz-adv-x="663" d="M487 226 L172 226 L87 0 L14 0 L291 716 L366 716 L648 0 L574 0 L487 226 Z M464 283 L326 642 L193 283 L464 283 Z M368 906 L483 769 L410 769 L331 865 L252 769 L180 769 L294 906 L368 906 Z "/>
<glyph glyph-name="Ecircumflex" unicode="Ê" horiz-adv-x="618" d="M564 716 L564 655 L157 655 L157 396 L531 396 L531 339 L157 339 L157 61 L574 61 L574 0 L86 0 L86 716 L564 716 Z M375 906 L490 769 L417 769 L338 865 L259 769 L187 769 L301 906 L375 906 Z "/>
<glyph glyph-name="Aacute" unicode="Á" horiz-adv-x="663" d="M487 226 L172 226 L87 0 L14 0 L291 716 L366 716 L648 0 L574 0 L487 226 Z M464 283 L326 642 L193 283 L464 283 Z M305 771 L378 904 L464 904 L356 771 L305 771 Z "/>
<glyph glyph-name="Edieresis" unicode="Ë" horiz-adv-x="618" d="M564 716 L564 655 L157 655 L157 396 L531 396 L531 339 L157 339 L157 61 L574 61 L574 0 L86 0 L86 716 L564 716 Z M249 884 L249 791 L170 791 L170 884 L249 884 Z M495 884 L495 791 L416 791 L416 884 L495 884 Z "/>
<glyph glyph-name="Egrave" unicode="È" horiz-adv-x="618" d="M564 716 L564 655 L157 655 L157 396 L531 396 L531 339 L157 339 L157 61 L574 61 L574 0 L86 0 L86 716 L564 716 Z M382 771 L331 771 L223 904 L309 904 L382 771 Z "/>
<glyph glyph-name="Iacute" unicode="Í" horiz-adv-x="243" d="M157 716 L157 0 L86 0 L86 716 L157 716 Z M95 771 L168 904 L255 904 L147 771 L95 771 Z "/>
<glyph glyph-name="Icircumflex" unicode="Î" horiz-adv-x="243" d="M157 716 L157 0 L86 0 L86 716 L157 716 Z M158 906 L273 769 L200 769 L121 865 L42 769 L-30 769 L84 906 L158 906 Z "/>
<glyph glyph-name="Idieresis" unicode="Ï" horiz-adv-x="243" d="M156 716 L156 0 L85 0 L85 716 L156 716 Z M46 884 L46 791 L-25 791 L-25 884 L46 884 Z M267 884 L267 791 L196 791 L196 884 L267 884 Z "/>
<glyph glyph-name="Igrave" unicode="Ì" horiz-adv-x="243" d="M157 716 L157 0 L86 0 L86 716 L157 716 Z M158 771 L107 771 L-1 904 L85 904 L158 771 Z "/>
<glyph glyph-name="Oacute" unicode="Ó" horiz-adv-x="775" d="M387 732 Q547 732 639 616 Q719 515 719 358 Q719 178 616 74 Q526 -16 387 -16 Q228 -16 136 100 Q56 202 56 358 Q56 538 159 642 Q249 732 387 732 Z M387 671 Q330 671 278.5 646.5 Q227 622 192 578 Q127 496 127 358 Q127 207 208 120 Q278 45 388 45 Q513 45 585 142 Q648 226 648 358 Q648 494 583 578 Q550 621 497.5 646 Q445 671 387 671 Z M349 771 L423 904 L509 904 L401 771 L349 771 Z "/>
<glyph glyph-name="Ocircumflex" unicode="Ô" horiz-adv-x="775" d="M387 732 Q547 732 639 616 Q719 515 719 358 Q719 178 616 74 Q526 -16 387 -16 Q228 -16 136 100 Q56 202 56 358 Q56 538 159 642 Q249 732 387 732 Z M387 671 Q330 671 278.5 646.5 Q227 622 192 578 Q127 496 127 358 Q127 207 208 120 Q278 45 388 45 Q513 45 585 142 Q648 226 648 358 Q648 494 583 578 Q550 621 497.5 646 Q445 671 387 671 Z M427 906 L542 769 L469 769 L390 865 L311 769 L239 769 L353 906 L427 906 Z "/>
<glyph glyph-name="Ograve" unicode="Ò" horiz-adv-x="775" d="M387 732 Q547 732 639 616 Q719 515 719 358 Q719 178 616 74 Q526 -16 387 -16 Q228 -16 136 100 Q56 202 56 358 Q56 538 159 642 Q249 732 387 732 Z M387 671 Q330 671 278.5 646.5 Q227 622 192 578 Q127 496 127 358 Q127 207 208 120 Q278 45 388 45 Q513 45 585 142 Q648 226 648 358 Q648 494 583 578 Q550 621 497.5 646 Q445 671 387 671 Z M432 771 L380 771 L272 904 L358 904 L432 771 Z "/>
<glyph glyph-name="Uacute" unicode="Ú" horiz-adv-x="700" d="M544 716 L615 716 L615 253 Q615 184 601 140 Q587 96 554 62 Q481 -11 351 -11 Q220 -11 148 62 Q114 96 100 140 Q86 184 86 253 L86 716 L157 716 L157 248 Q157 157 195 112 Q248 50 350 50 Q453 50 506 112 Q544 157 544 248 L544 716 Z M314 771 L387 904 L473 904 L365 771 L314 771 Z "/>
<glyph glyph-name="Ucircumflex" unicode="Û" horiz-adv-x="700" d="M544 716 L615 716 L615 253 Q615 184 601 140 Q587 96 554 62 Q481 -11 351 -11 Q220 -11 148 62 Q114 96 100 140 Q86 184 86 253 L86 716 L157 716 L157 248 Q157 157 195 112 Q248 50 350 50 Q453 50 506 112 Q544 157 544 248 L544 716 Z M389 906 L503 769 L430 769 L352 865 L272 769 L200 769 L315 906 L389 906 Z "/>
<glyph glyph-name="Ugrave" unicode="Ù" horiz-adv-x="700" d="M544 716 L615 716 L615 253 Q615 184 601 140 Q587 96 554 62 Q481 -11 351 -11 Q220 -11 148 62 Q114 96 100 140 Q86 184 86 253 L86 716 L157 716 L157 248 Q157 157 195 112 Q248 50 350 50 Q453 50 506 112 Q544 157 544 248 L544 716 Z M403 771 L351 771 L244 904 L330 904 L403 771 Z "/>
<glyph glyph-name="overscore" unicode="¯" horiz-adv-x="469" d="M0 825 L469 825 L469 780 L0 780 L0 825 Z "/>
<glyph glyph-name="cedilla" unicode="¸" horiz-adv-x="491" d="M283 9 L253 -50 Q265 -46 276 -46 Q305 -46 324 -64.5 Q343 -83 343 -112 Q343 -150 314 -173 Q289 -192 251 -192 Q205 -192 158 -165 L175 -124 Q211 -145 245 -145 Q264 -145 276.5 -135.5 Q289 -126 289 -112 Q289 -99 279.5 -90.5 Q270 -82 256 -82 Q240 -82 222 -93 L195 -73 L241 10 L283 9 Z "/>
<glyph glyph-name="brokenbar" unicode="¦" horiz-adv-x="196" d="M69 688 L127 688 L127 412 L69 412 L69 688 Z M127 28 L69 28 L69 304 L127 304 L127 28 Z "/>
<glyph glyph-name="Eth" unicode="Ð" horiz-adv-x="712" d="M86 339 L37 339 L37 396 L86 396 L86 716 L347 716 Q521 716 593 605 Q656 508 656 360 Q656 202 581 102 Q541 48 482.5 24 Q424 0 331 0 L86 0 L86 339 Z M157 339 L157 61 L316 61 Q399 61 446 79 Q493 97 526 142 Q585 222 585 358 Q585 513 522 588 Q466 655 342 655 L157 655 L157 396 L360 396 L360 339 L157 339 Z "/>
<glyph glyph-name="eth" unicode="ð" horiz-adv-x="580" d="M297 703 L345 771 L389 741 L342 675 Q439 606 488 493 Q530 395 530 274 Q530 131 457 53 Q393 -14 289 -14 Q169 -14 105 68 Q49 140 49 258 Q49 392 122 467 Q186 533 286 533 Q364 533 415 488 Q393 537 370 566 Q347 595 307 624 L260 558 L217 588 L262 652 Q235 667 200 681 L222 734 Q264 720 297 703 Z M288 476 Q203 476 157 410 Q117 353 117 260 Q117 152 169 94 Q214 43 288 43 Q373 43 420 110 Q462 168 462 259 Q462 364 408 424 Q361 476 288 476 Z "/>
<glyph glyph-name="Yacute" unicode="Ý" horiz-adv-x="611" d="M341 314 L341 0 L273 0 L273 314 L0 716 L84 716 L307 377 L528 716 L611 716 L341 314 Z M268 771 L341 904 L427 904 L320 771 L268 771 Z "/>
<glyph glyph-name="yacute" unicode="ý" horiz-adv-x="475" d="M8 519 L78 519 L200 195 Q227 126 239 71 Q249 119 280 197 L400 519 L468 519 L239 -68 Q214 -131 186.5 -155 Q159 -179 109 -179 Q91 -179 65 -174 L65 -118 Q89 -122 103 -122 Q129 -122 145.5 -107 Q162 -92 177 -55 L205 14 L8 519 Z M295 730 L387 730 L268 594 L212 594 L295 730 Z "/>
<glyph glyph-name="Thorn" unicode="Þ" horiz-adv-x="620" d="M157 166 L157 0 L86 0 L86 716 L157 716 L157 569 L359 569 Q420 569 458 558.5 Q496 548 525 522 Q584 471 584 368 Q584 264 525 213 Q496 187 458 176.5 Q420 166 359 166 L157 166 Z M157 227 L330 227 Q426 227 469 261 Q513 296 513 368 Q513 439 469 474 Q426 508 330 508 L157 508 L157 227 Z "/>
<glyph glyph-name="thorn" unicode="þ" horiz-adv-x="587" d="M79 716 L143 716 L143 445 Q177 491 217.5 512 Q258 533 313 533 Q422 533 483 451 Q537 379 537 266 Q537 132 466 54 Q405 -14 311 -14 Q258 -14 219.5 6.5 Q181 27 143 76 L143 -165 L79 -165 L79 716 Z M308 476 Q226 476 182 410 Q143 353 143 259 Q143 152 193 94 Q237 43 308 43 Q390 43 434 108 Q473 165 473 259 Q473 367 423 425 Q379 476 308 476 Z "/>
<glyph glyph-name="minus" unicode="−" horiz-adv-x="511" d="M465 249 L465 191 L46 191 L46 249 L465 249 Z "/>
<glyph glyph-name="multiply" unicode="×" horiz-adv-x="417" d="M354 399 L384 368 L238 222 L372 87 L342 58 L208 191 L74 58 L44 87 L178 222 L32 368 L63 399 L208 252 L354 399 Z "/>
<glyph glyph-name="onesuperior" unicode="¹" horiz-adv-x="387" d="M226 716 L226 286 L176 286 L176 603 L73 603 L73 637 Q133 639 157 655.5 Q181 672 187 716 L226 716 Z "/>
<glyph glyph-name="twosuperior" unicode="²" horiz-adv-x="387" d="M334 329 L334 286 L45 286 Q45 297 45 302 Q45 357 75 397 Q91 418 114.5 435.5 Q138 453 188 481 Q244 512 263 535 Q282 558 282 593 Q282 632 259.5 653 Q237 674 197 674 Q108 674 107 571 L54 571 Q55 647 98 686 Q135 720 199 720 Q265 720 303 681 Q336 648 336 596 Q336 549 310 516.5 Q284 484 216 446 Q163 416 146 404 Q129 392 117 375 Q102 355 97 329 L334 329 Z "/>
<glyph glyph-name="threesuperior" unicode="³" horiz-adv-x="387" d="M142 492 L142 532 Q163 530 172 530 Q217 530 242 553 Q263 573 263 605 Q263 638 239.5 657.5 Q216 677 178 677 Q133 677 110 650 Q90 627 90 588 Q90 584 90 581 L40 581 Q41 651 82 688 Q118 720 178 720 Q242 720 279 684 Q312 653 312 606 Q312 548 255 515 Q326 487 326 412 Q326 349 279 311 Q238 278 177 278 Q104 278 64 321 Q29 358 29 419 L80 419 Q81 369 110 343 Q135 321 179 321 Q224 321 251 349 Q275 373 275 408 Q275 492 169 492 L159 492 Q149 492 142 492 Z "/>
<glyph glyph-name="onehalf" unicode="½" horiz-adv-x="671" d="M167 673 L167 282 L144 263 L122 263 L122 620 L39 560 L16 589 L122 673 L167 673 Z M533 673 L137 0 L83 0 L480 673 L533 673 Z M578 410 Q611 401 630 375 Q648 349 648 312 Q648 301 646 290 Q640 244 588 182 Q574 165 489 70 L462 41 L648 41 L648 25 L627 0 L410 0 L410 42 L445 81 L542 188 Q579 230 591 252 Q603 274 606 298 Q607 305 607 311 Q607 335 594 349 Q583 363 563 369 Q554 371 544 371 Q504 371 458 341 L433 375 Q470 400 504 409 Q526 414 545 414 Q562 414 578 410 Z "/>
<glyph glyph-name="onequarter" unicode="¼" horiz-adv-x="609" d="M167 673 L167 282 L144 263 L122 263 L122 620 L39 560 L16 589 L122 673 L167 673 Z M509 673 L113 0 L59 0 L456 673 L509 673 Z M544 412 L544 148 L592 148 L592 107 L544 107 L544 15 L525 0 L501 0 L501 107 L311 107 L311 146 L504 412 L544 412 Z M501 347 L359 148 L501 148 L501 347 Z "/>
<glyph glyph-name="threequarters" unicode="¾" horiz-adv-x="672" d="M114 685 Q120 686 125 686 Q154 686 177 676 Q205 663 218 635 Q230 614 230 588 Q230 546 209 519 Q189 493 153 485 Q203 481 230 440 Q248 411 248 377 Q248 357 242 340 Q231 305 199 288 Q168 269 117 269 Q112 269 106 269 Q66 271 33 281 L17 303 L17 318 Q62 305 102 305 Q156 304 183 327 Q205 344 205 374 Q205 406 186 428 Q152 468 74 468 Q71 468 66 468 L66 499 L105 499 Q136 499 159 516 Q189 539 188 586 Q187 626 161 641 Q145 650 121 650 Q118 650 115 650 Q81 648 44 634 L44 668 Q75 682 114 685 Z M586 673 L190 0 L137 0 L533 673 L586 673 Z M608 412 L608 148 L656 148 L656 107 L608 107 L608 15 L589 0 L565 0 L565 107 L375 107 L375 146 L568 412 L608 412 Z M565 347 L423 148 L565 148 L565 347 Z "/>
<glyph glyph-name="nbspace" unicode=" " horiz-adv-x="273" d=""/>
<glyph glyph-name="uni00AD" unicode="­" horiz-adv-x="260" d="M260 295 L260 234 L0 234 L0 295 L260 295 Z "/>
<glyph glyph-name="uni02C9" unicode="ˉ" horiz-adv-x="491" d="M397 691 L397 634 L93 634 L93 691 L397 691 Z "/>
<glyph glyph-name="anoteleia" unicode="·" horiz-adv-x="249" d="M79 318 L170 318 L170 211 L79 211 L79 318 Z "/>
<glyph glyph-name="uni060C" unicode="،" horiz-adv-x="192" d="M99 -5 Q80 -5 68 8 Q57 20 54 40 Q52 51 52 62 Q52 82 58 103 Q72 157 110 198 L128 198 L143 186 Q118 158 102 120 Q91 91 91 73 Q95 73 100 73 Q118 73 128 61 Q133 55 135 44 Q136 39 136 35 Q136 26 133 18 Q123 -5 99 -5 Z "/>
<glyph glyph-name="uni0615" unicode="ؕ" d="M54 774 L54 678 Q77 714 109 733 Q138 753 171 754 Q206 755 227 735 Q250 712 250 670 L250 642 Q250 622 239 607 Q224 585 193 585 L0 585 L0 617 L26 617 L26 774 L54 774 Z M170 719 Q140 718 106 690 Q72 661 54 617 L191 617 Q215 617 215 641 L215 667 Q215 697 199 710 Q188 719 170 719 Z "/>
<glyph glyph-name="uni061B" unicode="؛" horiz-adv-x="192" d="M99 190 Q80 190 68 203 Q57 215 54 235 Q52 245 52 257 Q52 277 58 298 Q72 352 110 393 L128 393 L143 381 Q118 352 102 314 Q91 285 91 267 Q95 268 100 268 Q118 268 128 256 Q133 250 135 239 Q136 234 136 230 Q136 221 133 213 Q123 190 99 190 Z M99 70 Q114 70 125 59 Q136 48 136 32 Q136 17 125 6 Q114 -5 99 -5 Q83 -5 72 6 Q61 17 61 32 Q61 48 72 59 Q83 70 99 70 Z "/>
<glyph glyph-name="uni061F" unicode="؟" horiz-adv-x="398" d="M206 721 Q278 723 317 681 Q351 646 365 574 L323 560 Q314 614 284 642 Q257 668 216 668 Q211 668 207 668 Q157 664 125 639 Q96 615 96 580 Q95 533 136 491 Q142 485 204 433 L244 400 Q265 382 277 364 Q305 318 305 248 Q305 228 303 206 L273 184 L245 184 Q247 213 247 237 Q247 309 225 339 Q200 374 130 431 Q86 467 71 487 Q44 522 41 564 Q40 572 40 579 Q40 641 85 680 Q132 721 206 721 Z M272 70 Q287 70 298 59 Q309 48 309 32 Q309 17 298 6 Q287 -5 272 -5 Q256 -5 245 6 Q234 17 234 32 Q234 48 245 59 Q256 70 272 70 Z "/>
<glyph glyph-name="uni0621" unicode="ء" horiz-adv-x="482" d="M262 455 Q268 456 274 456 Q311 456 357 445 L357 396 Q307 408 266 407 Q193 406 154 353 Q121 306 121 226 Q121 142 159 100 Q197 57 271 57 Q280 57 289 58 Q378 70 415 71 Q455 73 462 73 L462 52 L435 20 Q350 17 265 -6 Q161 -34 84 -87 L56 -43 Q101 -13 164 18 Q133 35 111 63 Q63 125 63 228 Q63 318 99 371 Q153 452 262 455 Z "/>
<glyph glyph-name="uni0622" unicode="آ" horiz-adv-x="196" d="M29 871 Q52 872 77 861 L115 843 Q138 833 159 833 Q174 833 186 838 Q200 845 210 857 L228 845 Q205 817 190 806 Q172 793 148 793 Q128 793 104 803 L62 821 Q43 830 29 830 Q3 830 -29 803 L-46 816 Q-12 870 29 871 Z M127 716 L127 -1 L97 -25 L69 -25 L69 716 L127 716 Z "/>
<glyph glyph-name="uni0623" unicode="أ" horiz-adv-x="196" d="M90 974 Q95 974 101 974 Q125 974 150 965 L150 935 Q130 942 112 942 Q105 942 98 941 Q79 937 69 925 Q56 909 56 884 Q56 861 71 843 Q90 823 118 823 L182 823 L182 811 L166 791 L2 791 L2 823 L45 823 Q22 851 22 894 Q22 925 39 946 Q58 970 90 974 Z M127 716 L127 -1 L97 -25 L69 -25 L69 716 L127 716 Z "/>
<glyph glyph-name="uni0624" unicode="ؤ" horiz-adv-x="523" d="M285 736 Q290 737 295 737 Q319 737 344 728 L344 698 Q324 705 306 705 Q299 705 292 704 Q273 700 263 688 Q250 672 250 647 Q250 624 265 606 Q284 586 313 586 L377 586 L377 574 L360 554 L196 554 L196 586 L240 586 Q216 614 216 657 Q216 688 234 709 Q252 733 285 736 Z M281 472 Q363 472 411 431 Q467 383 467 293 L467 -2 Q467 -100 415 -160 Q369 -215 287 -231 Q252 -238 209 -238 Q201 -238 191 -238 Q183 -238 169 -237 L140 -201 L140 -184 Q167 -186 192 -186 Q237 -186 274 -178 Q340 -166 372 -128 Q393 -104 401 -73 Q409 -42 409 14 Q355 -10 296 -11 Q291 -11 286 -11 Q173 -11 111 62 Q54 128 54 239 Q54 360 125 421 Q184 472 281 472 Z M282 419 Q195 419 151 366 Q112 319 112 238 Q112 138 172 85 Q222 40 301 41 Q352 41 409 64 L409 292 Q409 352 376 385 Q342 419 282 419 Z "/>
<glyph glyph-name="uni0625" unicode="إ" horiz-adv-x="196" d="M127 716 L127 -1 L97 -25 L69 -25 L69 716 L127 716 Z M88 -118 Q93 -118 99 -118 Q122 -118 148 -127 L148 -157 Q128 -150 110 -150 Q103 -150 96 -151 Q77 -155 67 -167 Q54 -183 54 -208 Q54 -231 69 -249 Q88 -269 116 -269 L180 -269 L180 -281 L164 -301 L0 -301 L0 -269 L43 -269 Q20 -241 20 -198 Q20 -167 37 -146 Q56 -122 88 -118 Z "/>
<glyph glyph-name="uni0626" unicode="ئ" horiz-adv-x="771" d="M157 473 Q162 473 168 473 Q192 473 217 464 L217 434 Q197 441 179 441 Q172 441 165 440 Q146 436 136 424 Q123 408 123 383 Q123 360 138 342 Q157 322 185 322 L249 322 L249 310 L233 290 L69 290 L69 322 L112 322 Q89 350 89 393 Q89 424 106 445 Q125 469 157 473 Z M503 473 Q509 473 515 473 Q573 473 634 451 L634 406 Q555 425 512 424 Q456 423 426 398 Q392 371 385 311 Q384 297 384 286 Q384 245 402 221 Q417 201 443.5 188 Q470 175 533 157 Q604 136 636 119 Q682 95 703 58 Q725 19 725 -29 Q725 -61 714 -96 Q690 -173 626 -206 Q565 -239 469 -239 L349 -239 Q237 -239 171 -184 Q97 -122 97 -2 L97 151 L127 175 L155 175 L155 -3 Q155 -89 192 -130 Q226 -167 310 -182 Q329 -185 388 -185 Q468 -185 509 -182 Q569 -177 610 -148 Q644 -124 660 -86 Q670 -61 670 -33 Q670 1 655 32 Q642 59 615 74 Q588 89 520 106 Q465 120 437 130 Q393 145 367 173 Q327 219 327 295 Q327 304 327 313 Q335 408 402 448 Q444 472 503 473 Z "/>
<glyph glyph-name="uni0627" unicode="ا" horiz-adv-x="196" d="M127 716 L127 -1 L97 -25 L69 -25 L69 716 L127 716 Z "/>
<glyph glyph-name="uni0628" unicode="ب" horiz-adv-x="939" d="M869 460 L869 83 Q869 49 843 24 Q820 0 788 0 L212 0 Q156 0 114 42 Q69 88 69 153 L69 364 L99 388 L127 388 L127 158 Q127 114 153 87 Q183 53 236 53 L764 53 Q811 53 811 100 L811 460 L869 460 Z M470 -128 Q485 -128 496 -139 Q507 -150 507 -166 Q507 -181 496 -192 Q485 -203 470 -203 Q454 -203 443 -192 Q432 -181 432 -166 Q432 -150 443 -139 Q454 -128 470 -128 Z "/>
<glyph glyph-name="uni0629" unicode="ة" horiz-adv-x="522" d="M330 679 Q345 679 356 668 Q367 657 367 642 Q367 626 356 615 Q345 604 330 604 Q314 604 303 615 Q292 626 292 642 Q292 657 303 668 Q314 679 330 679 Z M429 679 Q444 679 455 668 Q466 657 466 642 Q466 626 455 615 Q444 604 429 604 Q413 604 402 615 Q391 626 391 642 Q391 657 402 668 Q413 679 429 679 Z M466 479 L466 170 Q466 97 430 53 Q377 -9 270 -9 Q188 -9 132 36 Q55 97 55 223 Q55 298 85 357 Q110 406 154 436 Q212 477 293 477 Q347 477 408 454 L438 479 L466 479 Z M298 423 Q233 421 187 386 Q115 331 114 223 Q114 133 163 85 Q204 44 271 44 Q345 44 377 79 Q408 114 408 170 L408 401 Q349 424 298 423 Z "/>
<glyph glyph-name="uni062A" unicode="ت" horiz-adv-x="939" d="M421 486 Q436 486 447 475 Q458 464 458 449 Q458 433 447 422 Q436 411 421 411 Q405 411 394 422 Q383 433 383 449 Q383 464 394 475 Q405 486 421 486 Z M520 486 Q535 486 546 475 Q557 464 557 449 Q557 433 546 422 Q535 411 520 411 Q504 411 493 422 Q482 433 482 449 Q482 464 493 475 Q504 486 520 486 Z M869 460 L869 83 Q869 49 843 24 Q820 0 788 0 L212 0 Q156 0 114 42 Q69 88 69 153 L69 364 L99 388 L127 388 L127 158 Q127 114 153 87 Q183 53 236 53 L764 53 Q811 53 811 100 L811 460 L869 460 Z "/>
<glyph glyph-name="uni062B" unicode="ث" horiz-adv-x="939" d="M470 565 Q485 565 496 554 Q507 543 507 528 Q507 512 496 501 Q485 490 470 490 Q454 490 443 501 Q432 512 432 528 Q432 543 443 554 Q454 565 470 565 Z M420 486 Q436 486 447 475 Q458 464 458 449 Q458 433 447 422 Q436 411 420 411 Q404 411 393 422 Q382 433 382 449 Q382 464 393 475 Q404 486 420 486 Z M519 486 Q534 486 545 475 Q556 464 556 449 Q556 433 545 422 Q534 411 519 411 Q503 411 492 422 Q481 433 481 449 Q481 464 492 475 Q503 486 519 486 Z M869 460 L869 83 Q869 49 843 24 Q820 0 788 0 L212 0 Q156 0 114 42 Q69 88 69 153 L69 364 L99 388 L127 388 L127 158 Q127 114 153 87 Q183 53 236 53 L764 53 Q811 53 811 100 L811 460 L869 460 Z "/>
<glyph glyph-name="uni062C" unicode="ج" horiz-adv-x="626" d="M333 473 Q452 475 520 395 Q571 336 571 220 L571 83 Q571 46 542 20 Q519 0 490 0 L284 0 Q201 0 155 -42 Q113 -81 113 -150 Q113 -207 131.5 -241.5 Q150 -276 194 -300 Q245 -328 313 -329 Q367 -330 454 -313 L454 -331 L426 -366 Q379 -379 314 -378 Q229 -376 176 -355 Q55 -299 55 -156 Q55 -57 117 -3 Q180 53 298 53 L466 53 Q513 53 513 100 L513 232 Q513 320 472 366 Q424 421 331 422 Q261 423 179 399 L179 445 Q262 472 333 473 Z M313 -128 Q329 -128 340 -139 Q351 -150 351 -166 Q351 -181 340 -192 Q329 -203 313 -203 Q297 -203 286 -192 Q275 -181 275 -166 Q275 -150 286 -139 Q297 -128 313 -128 Z "/>
<glyph glyph-name="uni062D" unicode="ح" horiz-adv-x="626" d="M333 473 Q452 475 520 395 Q544 368 557.5 329.5 Q571 291 571 251 L571 83 Q571 46 542 20 Q519 0 490 0 L284 0 Q201 0 155 -42 Q113 -81 113 -151 Q113 -204 132 -238 Q151 -272 194 -296 Q245 -324 313 -325 Q368 -326 454 -308 L454 -331 L426 -366 Q379 -379 314 -378 Q229 -376 176 -355 Q55 -299 55 -156 Q55 -57 117 -3 Q180 53 298 53 L466 53 Q513 53 513 100 L513 232 Q513 320 472 366 Q424 421 331 422 Q261 423 179 399 L179 445 Q262 472 333 473 Z "/>
<glyph glyph-name="uni062E" unicode="خ" horiz-adv-x="627" d="M362 680 Q378 680 389 669 Q400 658 400 642 Q400 626 389 615 Q378 604 362 604 Q346 604 335 615 Q324 626 324 642 Q324 658 335 669 Q346 680 362 680 Z M333 473 Q452 475 520 395 Q544 368 557.5 329.5 Q571 291 571 251 L571 83 Q571 46 542 20 Q518 0 490 0 L284 0 Q201 0 155 -42 Q113 -81 113 -151 Q113 -204 132 -238 Q151 -272 194 -296 Q245 -324 313 -325 Q368 -326 454 -308 L454 -331 L426 -366 Q379 -379 314 -378 Q229 -377 176 -355 Q55 -299 55 -156 Q55 -57 117 -3 Q180 53 298 53 L466 53 Q513 53 513 100 L513 232 Q513 320 472 366 Q423 421 331 422 Q261 423 179 399 L179 445 Q262 472 333 473 Z "/>
<glyph glyph-name="uni062F" unicode="د" horiz-adv-x="510" d="M254 471 Q326 464 377 420 Q450 359 450 259 L450 83 Q450 49 424 24 Q401 0 368 0 L39 0 L39 53 L345 53 Q392 53 392 100 L392 247 Q392 320 347 371 Q296 426 192 426 Q184 426 174 425 Q157 425 140 422 L140 466 Q180 473 220 473 Q238 473 254 471 Z "/>
<glyph glyph-name="uni0630" unicode="ذ" horiz-adv-x="510" d="M176 679 Q191 679 202.5 668 Q214 657 214 642 Q214 626 202.5 615 Q191 604 176 604 Q160 604 149 615 Q138 626 138 642 Q138 657 149 668 Q160 679 176 679 Z M254 471 Q326 464 377 420 Q450 359 450 259 L450 83 Q450 49 424 24 Q401 0 368 0 L39 0 L39 53 L345 53 Q392 53 392 100 L392 247 Q392 320 347 371 Q296 426 192 426 Q184 426 174 425 Q157 425 140 422 L140 466 Q180 473 220 473 Q238 473 254 471 Z "/>
<glyph glyph-name="uni0631" unicode="ر" horiz-adv-x="384" d="M315 460 L315 -2 Q314 -101 263 -160 Q217 -215 134 -231 Q100 -238 57 -238 Q49 -238 39 -238 Q31 -238 17 -237 L-12 -201 L-12 -184 Q14 -186 40 -186 Q85 -186 122 -178 Q188 -166 220 -128 Q257 -86 257 -6 L257 460 L315 460 Z "/>
<glyph glyph-name="uni0632" unicode="ز" horiz-adv-x="393" d="M287 679 Q302 679 313.5 668 Q325 657 325 642 Q325 626 313.5 615 Q302 604 287 604 Q271 604 260 615 Q249 626 249 642 Q249 657 260 668 Q271 679 287 679 Z M315 460 L315 -2 Q314 -101 263 -160 Q217 -215 134 -231 Q100 -238 57 -238 Q49 -238 39 -238 Q31 -238 17 -237 L-12 -201 L-12 -184 Q14 -186 40 -186 Q85 -186 122 -178 Q188 -166 220 -128 Q257 -86 257 -6 L257 460 L315 460 Z "/>
<glyph glyph-name="uni0633" unicode="س" horiz-adv-x="1302" d="M1233 460 L1233 83 Q1233 47 1206 22 Q1182 0 1152 0 L969 0 L946 31 L944 31 Q918 0 882 0 L693 0 Q693 -115 627 -176 Q561 -239 441 -239 L321 -239 Q208 -239 143 -183 Q69 -122 69 -2 L69 229 L99 253 L127 253 L127 -3 Q127 -89 164 -130 Q197 -166 282 -182 Q306 -186 382 -186 Q457 -186 481 -182 Q554 -168 590 -133 Q635 -89 635 -3 L635 345 L693 345 L693 53 L858 53 Q905 53 905 100 L905 403 L963 403 L963 83 Q963 68 957 53 L1128 53 Q1175 53 1175 100 L1175 460 L1233 460 Z "/>
<glyph glyph-name="uni0634" unicode="ش" horiz-adv-x="1302" d="M935 758 Q950 758 961 747 Q972 736 972 721 Q972 705 961 694 Q950 683 935 683 Q919 683 908 694 Q897 705 897 721 Q897 736 908 747 Q919 758 935 758 Z M885 680 Q901 680 912 669 Q923 658 923 642 Q923 626 912 615 Q901 604 885 604 Q869 604 858 615 Q847 626 847 642 Q847 658 858 669 Q869 680 885 680 Z M984 680 Q999 680 1010 669 Q1021 658 1021 642 Q1021 626 1010 615 Q999 604 984 604 Q968 604 957 615 Q946 626 946 642 Q946 658 957 669 Q968 680 984 680 Z M1233 460 L1233 83 Q1233 47 1206 22 Q1182 0 1152 0 L969 0 L946 31 L944 31 Q918 0 882 0 L693 0 Q693 -115 627 -176 Q561 -239 441 -239 L321 -239 Q208 -239 143 -183 Q69 -122 69 -2 L69 229 L99 253 L127 253 L127 -3 Q127 -89 164 -130 Q197 -166 282 -182 Q306 -186 382 -186 Q457 -186 481 -182 Q554 -168 590 -133 Q635 -89 635 -3 L635 345 L693 345 L693 53 L858 53 Q905 53 905 100 L905 403 L963 403 L963 83 Q963 68 957 53 L1128 53 Q1175 53 1175 100 L1175 460 L1233 460 Z "/>
<glyph glyph-name="uni0635" unicode="ص" horiz-adv-x="1379" d="M1081 472 Q1185 472 1253 408 Q1323 340 1323 230 L1323 83 Q1323 49 1297 24 Q1274 0 1242 0 L693 0 Q693 -115 627 -176 Q561 -239 441 -239 L321 -239 Q208 -239 143 -183 Q69 -122 69 -2 L69 229 L99 253 L127 253 L127 -3 Q127 -89 164 -130 Q197 -166 282 -182 Q306 -186 382 -186 Q457 -186 481 -182 Q554 -168 590 -133 Q635 -89 635 -3 L635 460 L693 460 L693 191 Q778 358 885 422 Q967 472 1081 472 Z M1077 422 Q983 422 911 377 Q775 288 695 53 L1218 53 Q1265 53 1265 100 L1265 248 Q1264 326 1218 371 Q1165 422 1077 422 Z "/>
<glyph glyph-name="uni0636" unicode="ض" horiz-adv-x="1379" d="M1012 680 Q1028 680 1039 669 Q1050 658 1050 642 Q1050 626 1039 615 Q1028 604 1012 604 Q996 604 985 615 Q974 626 974 642 Q974 658 985 669 Q996 680 1012 680 Z M1081 472 Q1185 472 1253 408 Q1323 340 1323 230 L1323 83 Q1323 49 1297 24 Q1274 0 1242 0 L693 0 Q693 -115 627 -176 Q561 -239 441 -239 L321 -239 Q208 -239 143 -183 Q69 -122 69 -2 L69 229 L99 253 L127 253 L127 -3 Q127 -89 164 -130 Q197 -166 282 -182 Q306 -186 382 -186 Q457 -186 481 -182 Q554 -168 590 -133 Q635 -89 635 -3 L635 460 L693 460 L693 191 Q778 358 885 422 Q967 472 1081 472 Z M1077 422 Q983 422 911 377 Q775 288 695 53 L1218 53 Q1265 53 1265 100 L1265 248 Q1264 326 1218 371 Q1165 422 1077 422 Z "/>
<glyph glyph-name="uni0637" unicode="ط" horiz-adv-x="986" d="M300 716 L300 191 Q385 357 492 422 Q574 472 688 472 Q793 472 861 408 Q931 340 931 230 L931 83 Q931 49 905 24 Q882 0 850 0 L79 0 L55 30 L55 53 L242 53 L242 716 L300 716 Z M684 422 Q590 422 519 377 Q382 288 302 53 L826 53 Q873 53 873 100 L873 249 Q872 326 826 372 Q773 422 684 422 Z "/>
<glyph glyph-name="uni0638" unicode="ظ" horiz-adv-x="986" d="M300 716 L300 191 Q385 357 492 422 Q575 472 689 472 Q793 472 861 408 Q931 340 931 230 L931 83 Q931 49 905 24 Q882 0 850 0 L79 0 L55 30 L55 53 L242 53 L242 716 L300 716 Z M628 680 Q644 680 655 669 Q666 658 666 642 Q666 626 655 615 Q644 604 628 604 Q613 604 602 615 Q591 626 591 642 Q591 658 602 669 Q613 680 628 680 Z M684 422 Q590 422 519 377 Q382 288 302 53 L826 53 Q873 53 873 100 L873 249 Q872 326 826 372 Q773 422 684 422 Z "/>
<glyph glyph-name="uni0639" unicode="ع" horiz-adv-x="547" d="M311 472 Q364 473 424 455 L424 406 Q367 422 318 422 Q313 422 307 422 Q245 419 204 386 Q147 340 145 248 Q145 243 145 241 Q145 172 185 116 Q231 53 298 53 L505 53 L505 30 L481 0 L284 0 Q201 0 155 -42 Q113 -81 113 -151 Q113 -204 132 -238 Q151 -272 194 -296 Q245 -324 313 -325 Q368 -326 454 -308 L454 -331 L426 -366 Q380 -379 314 -378 Q229 -376 176 -355 Q55 -299 55 -156 Q55 -57 117 -3 Q146 23 187 37 Q150 62 125 102 Q86 164 87 242 Q88 375 181 435 Q235 470 311 472 Z "/>
<glyph glyph-name="uni063A" unicode="غ" horiz-adv-x="547" d="M318 680 Q333 680 344 669 Q355 658 355 642 Q355 626 344 615 Q333 604 318 604 Q302 604 291 615 Q280 626 280 642 Q280 658 291 669 Q302 680 318 680 Z M311 472 Q365 473 424 455 L424 406 Q367 422 319 422 Q313 422 308 422 Q246 419 205 386 Q148 340 146 248 Q146 243 146 241 Q146 172 186 116 Q231 53 298 53 L505 53 L505 29 L481 0 L284 0 Q201 0 155 -42 Q113 -81 113 -151 Q113 -204 132 -238 Q151 -272 194 -296 Q245 -324 313 -325 Q368 -326 454 -308 L454 -331 L426 -366 Q379 -379 314 -378 Q229 -377 176 -355 Q55 -299 55 -156 Q55 -57 117 -3 Q145 23 187 37 Q150 62 126 102 Q87 164 88 242 Q89 375 181 435 Q235 470 311 472 Z "/>
<glyph glyph-name="uni0640" unicode="ـ" horiz-adv-x="178" d="M181 53 L181 0 L-4 0 L-4 53 L181 53 Z "/>
<glyph glyph-name="uni0641" unicode="ف" horiz-adv-x="971" d="M730 679 Q745 679 756 668 Q767 657 767 642 Q767 626 756 615 Q745 604 730 604 Q714 604 703 615 Q692 626 692 642 Q692 657 703 668 Q714 679 730 679 Z M730 472 Q812 472 860 431 Q916 383 916 293 L916 83 Q916 49 890 24 Q867 0 835 0 L212 0 Q156 0 114 42 Q69 88 69 153 L69 364 L99 388 L127 388 L127 158 Q127 115 153 87 Q183 53 236 53 L572 53 Q503 120 503 240 Q503 355 571 417 Q631 472 730 472 Z M730 419 Q640 419 597 361 Q561 312 561 226 Q561 144 606 96 Q647 53 714 53 L811 53 Q858 53 858 100 L858 292 Q858 357 820 390 Q787 419 730 419 Z "/>
<glyph glyph-name="uni0642" unicode="ق" horiz-adv-x="748" d="M459 679 Q475 679 486 668 Q497 657 497 642 Q497 626 486 615 Q475 604 459 604 Q443 604 432 615 Q421 626 421 642 Q421 657 432 668 Q443 679 459 679 Z M558 679 Q573 679 584 668 Q595 657 595 642 Q595 626 584 615 Q573 604 558 604 Q542 604 531 615 Q520 626 520 642 Q520 657 531 668 Q542 679 558 679 Z M507 472 Q589 472 637 431 Q693 383 693 293 L693 -2 Q693 -115 627 -176 Q561 -239 441 -239 L321 -239 Q209 -239 143 -183 Q69 -122 69 -2 L69 161 L99 185 L127 185 L127 -3 Q127 -90 164 -130 Q197 -166 282 -182 Q306 -186 382 -186 Q457 -186 481 -182 Q554 -168 590 -133 Q615 -109 625 -76 Q635 -43 635 14 Q581 -10 522 -11 Q516 -11 513 -11 Q422 -11 360 41 Q281 108 281 239 Q281 360 352 421 Q410 472 507 472 Z M508 419 Q436 419 392 381 Q338 334 338 239 Q338 135 401 83 Q451 41 527 42 Q579 42 635 64 L635 292 Q635 352 602 385 Q568 419 508 419 Z "/>
<glyph glyph-name="uni0643" unicode="ك" horiz-adv-x="939" d="M869 716 L869 83 Q869 49 843 24 Q820 0 788 0 L212 0 Q156 0 114 42 Q69 88 69 153 L69 364 L99 388 L127 388 L127 158 Q127 115 153 87 Q183 53 236 53 L764 53 Q788 53 800 66 Q811 79 811 100 L811 716 L869 716 Z M480 612 Q489 613 499 613 Q533 613 556 606 L556 567 Q531 575 506 575 Q500 575 494 574 Q461 572 444 555 Q420 532 419 493 Q418 447 437 418 Q456 388 491 388 L611 388 L611 369 L596 350 L324 350 L324 388 L406 388 Q390 410 382 437 Q374 461 374 486 Q374 489 375 492 Q377 544 405 575 Q433 608 480 612 Z "/>
<glyph glyph-name="uni0644" unicode="ل" horiz-adv-x="762" d="M693 716 L693 -2 Q693 -114 627 -176 Q561 -239 441 -239 L321 -239 Q209 -239 143 -183 Q69 -121 69 -2 L69 230 L99 254 L127 254 L127 -3 Q127 -89 164 -130 Q197 -166 282 -182 Q306 -186 382 -186 Q457 -186 481 -182 Q554 -168 590 -133 Q635 -89 635 -3 L635 716 L693 716 Z "/>
<glyph glyph-name="uni0645" unicode="م" horiz-adv-x="601" d="M358 471 Q443 471 492 430 Q545 384 545 292 L545 83 Q545 49 519 24 Q496 0 464 0 L160 0 Q113 0 113 -47 L113 -349 L83 -373 L55 -373 L55 -30 Q55 5 83 31 Q107 53 136 53 L203 53 Q137 117 135 225 Q134 342 200 410 Q260 471 358 471 Z M358 418 Q276 418 229 352 Q191 299 192 226 Q193 143 237 96 Q277 53 345 53 L441 53 Q487 53 487 100 L487 292 Q487 351 446 388 Q412 418 358 418 Z "/>
<glyph glyph-name="uni0646" unicode="ن" horiz-adv-x="762" d="M370 471 Q385 471 396 460 Q407 449 407 434 Q407 418 396 407 Q385 396 370 396 Q354 396 343 407 Q332 418 332 434 Q332 449 343 460 Q354 471 370 471 Z M693 460 L693 -2 Q693 -114 627 -176 Q561 -239 441 -239 L321 -239 Q209 -239 143 -183 Q69 -122 69 -2 L69 229 L99 253 L127 253 L127 -3 Q127 -89 164 -130 Q197 -166 282 -182 Q306 -186 382 -186 Q457 -186 481 -182 Q554 -168 590 -133 Q635 -89 635 -3 L635 460 L693 460 Z "/>
<glyph glyph-name="uni0647" unicode="ه" horiz-adv-x="522" d="M466 479 L466 170 Q466 97 430 53 Q377 -9 270 -9 Q188 -9 132 36 Q55 97 55 223 Q55 298 85 357 Q110 406 154 436 Q212 477 293 477 Q347 477 408 454 L438 479 L466 479 Z M298 423 Q233 421 187 386 Q115 331 114 223 Q114 133 163 85 Q204 44 271 44 Q345 44 377 79 Q408 114 408 170 L408 401 Q349 424 298 423 Z "/>
<glyph glyph-name="uni0648" unicode="و" horiz-adv-x="523" d="M281 472 Q363 472 411 431 Q467 383 467 293 L467 -2 Q467 -100 415 -160 Q369 -215 287 -231 Q252 -238 209 -238 Q201 -238 191 -238 Q183 -238 169 -237 L140 -201 L140 -184 Q167 -186 192 -186 Q237 -186 274 -178 Q340 -166 372 -128 Q393 -104 401 -73 Q409 -42 409 14 Q355 -10 296 -11 Q291 -11 286 -11 Q173 -11 111 62 Q54 128 54 239 Q54 360 125 421 Q184 472 281 472 Z M282 419 Q195 419 151 366 Q112 319 112 238 Q112 138 172 85 Q222 40 301 41 Q352 41 409 64 L409 292 Q409 352 376 385 Q342 419 282 419 Z "/>
<glyph glyph-name="uni0649" unicode="ى" horiz-adv-x="744" d="M475 473 Q481 473 487 473 Q545 473 606 451 L606 406 Q527 425 484 424 Q428 423 398 398 Q364 371 357 311 Q356 298 356 285 Q356 245 374 221 Q388 201 414.5 188 Q441 175 504 157 Q576 136 607 120 Q654 95 675 58 Q697 19 697 -28 Q697 -61 686 -96 Q662 -173 598 -206 Q537 -239 441 -239 L321 -239 Q209 -239 143 -184 Q69 -122 69 -2 L69 151 L99 175 L127 175 L127 -3 Q127 -90 164 -130 Q198 -167 282 -182 Q301 -185 360 -185 Q440 -185 481 -182 Q541 -177 582 -148 Q616 -124 632 -86 Q642 -61 642 -33 Q642 1 627 32 Q614 59 587 74 Q560 89 493 106 Q437 120 409 130 Q365 145 339 173 Q299 219 299 295 Q299 303 299 313 Q307 408 374 448 Q416 472 475 473 Z "/>
<glyph glyph-name="uni064A" unicode="ي" horiz-adv-x="744" d="M475 473 Q481 473 487 473 Q545 473 606 451 L606 406 Q527 425 484 424 Q428 423 398 398 Q364 371 357 311 Q356 298 356 285 Q356 245 374 221 Q389 201 415 188 Q441 175 503 157 Q576 136 607 120 Q654 95 675 58 Q697 19 697 -28 Q697 -61 686 -96 Q662 -173 598 -206 Q537 -239 441 -239 L321 -239 Q209 -239 143 -184 Q69 -122 69 -2 L69 151 L99 175 L127 175 L127 -3 Q127 -90 164 -130 Q198 -167 282 -182 Q301 -185 360 -185 Q440 -185 481 -182 Q541 -177 582 -148 Q616 -124 632 -86 Q642 -61 642 -33 Q642 1 627 32 Q614 59 587 74 Q560 89 492 106 Q437 120 409 130 Q365 145 339 173 Q299 219 299 295 Q299 303 299 313 Q307 408 374 448 Q416 472 475 473 Z M329 -298 Q344 -298 355 -309 Q366 -320 366 -336 Q366 -351 355 -362 Q344 -373 329 -373 Q313 -373 302 -362 Q291 -351 291 -336 Q291 -320 302 -309 Q313 -298 329 -298 Z M428 -298 Q443 -298 454 -309 Q465 -320 465 -336 Q465 -351 454 -362 Q443 -373 428 -373 Q412 -373 401 -362 Q390 -351 390 -336 Q390 -320 401 -309 Q412 -298 428 -298 Z "/>
<glyph glyph-name="uni064B" unicode="ً" d="M15 631 L0 650 L0 661 L210 719 L210 685 L15 631 Z M15 546 L0 564 L0 576 L210 634 L210 599 L15 546 Z "/>
<glyph glyph-name="uni064C" unicode="ٌ" d="M260 717 Q288 715 305.5 695 Q323 675 323 644 Q323 616 308 594 Q295 575 278 564 Q239 535 192 535 Q190 535 186 535 Q125 537 85 585 L31 538 L12 538 L0 548 L90 628 Q106 601 133 585 Q160 569 188 569 Q207 569 221 577 Q183 602 183 643 Q183 646 183 649 Q186 681 207 699.5 Q228 718 260 717 Z M254 688 Q236 688 224.5 676 Q213 664 213 644 Q213 625 225 609.5 Q237 594 255 590 Q271 598 282 612.5 Q293 627 293 642 Q293 662 282.5 674.5 Q272 687 254 688 Z "/>
<glyph glyph-name="uni064D" unicode="ٍ" d="M15 -183 L0 -164 L0 -153 L210 -95 L210 -129 L15 -183 Z M15 -268 L0 -249 L0 -238 L210 -180 L210 -214 L15 -268 Z "/>
<glyph glyph-name="uni064E" unicode="َ" d="M15 572 L0 590 L0 602 L210 660 L210 625 L15 572 Z "/>
<glyph glyph-name="uni064F" unicode="ُ" d="M148 728 Q176 726 194 705.5 Q212 685 212 654 Q212 623 192 599 Q172 575 136 564 L14 530 L0 547 L0 560 L108 589 Q93 597 82.5 616 Q72 635 72 656 Q72 658 72 660 Q74 691 94 709.5 Q114 728 144 728 Q146 728 148 728 Z M143 698 Q125 698 113.5 686 Q102 674 102 654 Q102 636 114 620.5 Q126 605 144 601 Q160 609 171 623.5 Q182 638 182 653 Q182 673 171.5 685.5 Q161 698 143 698 Z "/>
<glyph glyph-name="uni0650" unicode="ِ" d="M15 -206 L0 -188 L0 -176 L210 -118 L210 -153 L15 -206 Z "/>
<glyph glyph-name="uni0651" unicode="ّ" d="M223 693 L223 589 Q223 570 211 557 Q199 544 177 544 L134 544 L123 555 Q120 552 116 549 Q108 544 99 544 L46 544 Q27 544 13 556 Q0 569 0 589 L0 654 L17 669 L35 669 L35 592 Q35 586 38 582 Q43 575 52 575 L77 575 Q85 575 89 580 Q93 584 93 591 L93 669 L129 669 L129 575 L170 575 Q179 575 183 581 Q188 585 188 592 L188 693 L223 693 Z "/>
<glyph glyph-name="uni0652" unicode="ْ" d="M70 693 Q99 693 119.5 671.5 Q140 650 140 619 Q140 588 121 569.5 Q102 551 70 551 Q38 551 19 569.5 Q0 588 0 619 Q0 654 25 676 Q45 693 70 693 Z M70 579 Q88 579 100 591 Q112 603 112 622 Q112 639 99.5 652 Q87 665 70 665 Q53 665 40.5 652 Q28 639 28 622 Q28 603 40 591 Q52 579 70 579 Z "/>
<glyph glyph-name="uni0653" unicode="ٓ" d="M97 655 Q120 656 145 645 L183 627 Q206 618 227 618 Q242 618 254 623 Q268 629 278 641 L296 629 Q273 601 258 590 Q240 577 216 577 Q196 577 172 587 L130 606 Q111 615 97 615 Q71 615 39 587 L22 600 Q56 654 97 655 Z "/>
<glyph glyph-name="uni0654" unicode="ٔ" d="M88 756 Q94 757 99 757 Q123 757 148 748 L148 718 Q128 725 110 725 Q103 725 96 724 Q77 720 67 708 Q54 692 54 667 Q54 644 69 626 Q88 606 116 606 L180 606 L180 594 L164 574 L0 574 L0 606 L43 606 Q20 634 20 677 Q20 708 37 729 Q56 753 88 756 Z "/>
<glyph glyph-name="uni0655" unicode="ٕ" d="M88 -73 Q93 -73 99 -73 Q123 -73 148 -82 L148 -112 Q128 -105 110 -105 Q103 -105 96 -106 Q77 -110 67 -122 Q54 -138 54 -163 Q54 -186 69 -204 Q88 -224 116 -224 L180 -224 L180 -236 L164 -256 L0 -256 L0 -224 L43 -224 Q20 -196 20 -153 Q20 -122 37 -101 Q56 -77 88 -73 Z "/>
<glyph glyph-name="uni0656" unicode="ٖ" d="M36 -75 L36 -269 L17 -284 L0 -284 L0 -75 L36 -75 Z "/>
<glyph glyph-name="uni0657" unicode="ٗ" d="M48 513 Q29 513 17 526 Q6 538 3 558 Q1 568 1 580 Q1 600 7 621 Q21 675 59 716 L77 716 L92 704 Q67 676 51 638 Q40 609 40 590 Q44 591 49 591 Q67 591 77 579 Q82 573 84 562 Q85 557 85 553 Q85 544 82 536 Q72 513 48 513 Z "/>
<glyph glyph-name="uni0658" unicode="٘" d="M30 662 L30 589 Q30 542 95 542 Q125 542 143 554.5 Q161 567 161 588 L161 718 L191 718 L191 585 Q191 553 164.5 533 Q138 513 96 513 Q48 513 23 533 Q0 552 0 584 L0 647 L18 662 L30 662 Z "/>
<glyph glyph-name="uni0660" unicode="٠" horiz-adv-x="213" d="M107 296 L169 234 L169 206 L108 144 L32 219 L107 296 Z "/>
<glyph glyph-name="uni0661" unicode="١" horiz-adv-x="242" d="M150 674 L150 24 L120 0 L92 0 L92 674 L150 674 Z "/>
<glyph glyph-name="uni0662" unicode="٢" horiz-adv-x="520" d="M308 686 Q313 687 319 687 Q388 687 451 666 L451 609 Q387 631 330 631 Q280 631 241 615 Q150 573 150 460 L150 24 L120 0 L92 0 L92 460 Q92 557 137 614 Q175 661 241 678 Q271 686 308 686 Z "/>
<glyph glyph-name="uni0663" unicode="٣" horiz-adv-x="738" d="M150 674 L150 409 Q165 402 195.5 396 Q226 390 250 390 Q317 390 341 416 Q361 437 361 478 L361 674 L416 674 L416 488 Q416 446 407 418 Q424 407 456.5 399 Q489 391 519 391 Q585 391 610 417 Q628 438 628 478 L628 674 L683 674 L683 493 Q683 443 671 412 Q661 385 641 368 Q603 336 527 336 Q486 336 446.5 348 Q407 360 388 379 Q363 356 335.5 346.5 Q308 337 267 336 Q211 335 150 358 L150 24 L120 0 L92 0 L92 674 L150 674 Z "/>
<glyph glyph-name="uni0664" unicode="٤" horiz-adv-x="488" d="M278 687 Q341 688 399 665 L399 618 Q342 635 291 635 Q224 634 188 604 Q152 573 152 518 Q152 449 197 415 Q229 391 284 391 L387 391 L387 367 L363 338 Q256 338 195 306 Q161 288 142 257 Q123 226 123 189 Q123 184 123 180 Q127 108 194 74 Q234 53 289 53 L426 53 L426 29 L402 0 L269 0 Q213 0 167 23 Q121 45 95 86 Q69 127 66 178 Q66 182 66 186 Q66 255 113 312 Q147 353 191 369 Q151 383 127 417 Q94 461 94 519 Q94 597 140 639 Q191 687 278 687 Z "/>
<glyph glyph-name="uni0665" unicode="٥" horiz-adv-x="513" d="M226 587 L288 587 Q349 565 394 499 Q457 407 470 278 Q473 258 473 233 Q473 124 428 66 Q372 -9 260 -9 Q149 -9 93 63 Q48 123 48 232 Q48 259 51 283 Q67 413 122 498 Q166 565 226 587 Z M272 537 L249 537 Q194 518 152 436 Q130 392 117.5 340.5 Q105 289 106 244 Q106 157 133 108 Q150 78 183.5 61 Q217 44 260 44 Q352 44 389 112 Q414 157 414 234 Q414 238 414 246 Q412 318 387 390 Q343 511 272 537 Z "/>
<glyph glyph-name="uni0666" unicode="٦" horiz-adv-x="520" d="M212 686 Q249 686 279 678 Q351 660 389 606 Q428 551 428 460 L428 24 L398 0 L370 0 L370 460 Q370 571 284 612 Q244 631 190 631 Q133 631 69 609 L69 666 Q132 687 201 687 Q207 687 212 686 Z "/>
<glyph glyph-name="uni0667" unicode="٧" horiz-adv-x="472" d="M442 679 L307 118 Q292 59 280 34 Q271 17 260 6 Q256 2 251 0 L221 0 Q215 2 210 7 Q201 17 192 37 Q178 65 165 118 L30 679 L97 679 L236 54 L376 679 L442 679 Z "/>
<glyph glyph-name="uni0668" unicode="٨" horiz-adv-x="472" d="M221 679 L251 679 Q255 677 260 673 Q272 661 281 641 Q293 619 307 561 L442 0 L376 0 L236 625 L97 0 L30 0 L165 561 Q177 607 188 634 Q198 659 210 672 Q215 676 221 679 Z "/>
<glyph glyph-name="uni0669" unicode="٩" horiz-adv-x="508" d="M249 686 Q323 686 371 648 Q434 596 434 493 L434 24 L404 0 L376 0 L376 297 L260 297 Q164 297 108 342 Q45 391 45 485 Q45 577 99 628 Q155 686 249 686 Z M242 634 Q180 634 139 587 Q102 546 103 486 Q104 425 141 391 Q183 350 264 350 L376 350 L376 499 Q376 562 341 598 Q306 634 242 634 Z "/>
<glyph glyph-name="uni066A" unicode="٪" horiz-adv-x="500" d="M130 690 L184 636 L184 611 L130 556 L62 623 L130 690 Z M468 673 L71 0 L18 0 L414 673 L468 673 Z M377 131 L431 77 L431 52 L377 -4 L309 63 L377 131 Z "/>
<glyph glyph-name="uni066B" unicode="٫" horiz-adv-x="191" d="M96 97 Q115 97 126 84 Q137 72 140 52 Q142 41 142 30 Q142 10 136 -11 Q122 -65 85 -106 L66 -106 L51 -94 Q76 -65 92 -28 Q103 2 103 20 Q99 19 95 19 Q77 19 67 31 Q62 37 60 48 Q59 53 59 57 Q59 66 62 74 Q72 97 96 97 Z "/>
<glyph glyph-name="uni066C" unicode="٬" horiz-adv-x="192" d="M128 198 L143 187 Q118 159 102 120 Q91 91 91 73 Q95 74 99 74 Q106 74 112 72 Q128 66 133 50 Q136 43 136 36 Q136 26 132 18 Q123 -5 98 -5 Q80 -5 68 8 Q57 20 54 40 Q52 51 52 62 Q52 82 58 103 Q72 157 110 198 L128 198 Z "/>
<glyph glyph-name="uni066D" unicode="٭" horiz-adv-x="427" d="M234 682 L234 514 L373 573 L386 532 L234 496 L331 368 L298 345 L214 477 L129 344 L96 369 L194 496 L42 532 L55 573 L194 514 L194 665 L215 682 L234 682 Z "/>
<glyph glyph-name="uni066E" unicode="ٮ" horiz-adv-x="939" d="M869 460 L869 83 Q869 49 843 24 Q820 0 788 0 L212 0 Q156 0 114 42 Q69 88 69 153 L69 364 L99 388 L127 388 L127 158 Q127 114 153 87 Q183 53 236 53 L764 53 Q811 53 811 100 L811 460 L869 460 Z "/>
<glyph glyph-name="uni066F" unicode="ٯ" horiz-adv-x="748" d="M507 472 Q589 472 637 431 Q693 383 693 293 L693 -2 Q693 -115 627 -176 Q561 -239 441 -239 L321 -239 Q209 -239 143 -183 Q69 -122 69 -2 L69 161 L99 185 L127 185 L127 -3 Q127 -90 164 -130 Q197 -166 282 -182 Q306 -186 382 -186 Q457 -186 481 -182 Q554 -168 590 -133 Q615 -109 625 -76 Q635 -43 635 14 Q581 -10 522 -11 Q516 -11 513 -11 Q422 -11 360 41 Q281 108 281 239 Q281 360 352 421 Q410 472 507 472 Z M508 419 Q436 419 392 381 Q338 334 338 239 Q338 135 401 83 Q451 41 527 42 Q579 42 635 64 L635 292 Q635 352 602 385 Q568 419 508 419 Z "/>
<glyph glyph-name="uni0670" unicode="ٰ" d="M36 716 L36 522 L17 507 L0 507 L0 716 L36 716 Z "/>
<glyph glyph-name="uni0671" unicode="ٱ" horiz-adv-x="196" d="M146 932 Q159 935 171 935 Q195 935 213 923 Q231 911 237 891 Q240 881 240 871 Q240 853 230 835.5 Q220 818 204 808 Q178 793 137 793 Q106 793 73 802 Q62 805 42 812 Q4 824 -6 824 Q-32 824 -64 797 L-81 810 Q-48 863 -6 865 Q14 866 52 853 Q78 894 106 914 Q125 927 146 932 Z M157 900 Q140 895 124 885 Q102 870 81 841 Q126 828 153 828 Q165 828 174 830 Q209 840 209 868 Q209 874 207 880 Q200 902 171 902 Q164 902 157 900 Z M128 716 L128 -1 L98 -25 L70 -25 L70 716 L128 716 Z "/>
<glyph glyph-name="uni0679" unicode="ٹ" horiz-adv-x="939" d="M416 576 L415 480 Q437 516 469 536 Q499 556 532 557 Q567 558 588 538 Q611 515 611 473 L611 445 Q611 425 600 410 Q584 388 554 388 L361 388 L361 420 L387 420 L387 576 L416 576 Z M531 522 Q501 521 467 493 Q433 463 415 420 L552 420 Q576 420 576 444 L576 469 Q576 500 560 513 Q549 522 531 522 Z M869 460 L869 83 Q869 49 843 24 Q820 0 788 0 L212 0 Q156 0 114 42 Q69 88 69 153 L69 364 L99 388 L127 388 L127 158 Q127 114 153 87 Q183 53 236 53 L764 53 Q811 53 811 100 L811 460 L869 460 Z "/>
<glyph glyph-name="uni067E" unicode="پ" horiz-adv-x="939" d="M869 460 L869 83 Q869 49 843 24 Q820 0 788 0 L212 0 Q156 0 114 42 Q69 88 69 153 L69 364 L99 388 L127 388 L127 158 Q127 114 153 87 Q183 53 236 53 L764 53 Q811 53 811 100 L811 460 L869 460 Z M420 -128 Q436 -128 447 -139 Q458 -150 458 -166 Q458 -181 447 -192 Q436 -203 420 -203 Q404 -203 393 -192 Q382 -181 382 -166 Q382 -150 393 -139 Q404 -128 420 -128 Z M519 -128 Q534 -128 545 -139 Q556 -150 556 -166 Q556 -181 545 -192 Q534 -203 519 -203 Q503 -203 492 -192 Q481 -181 481 -166 Q481 -150 492 -139 Q503 -128 519 -128 Z M470 -206 Q485 -206 496 -217 Q507 -228 507 -244 Q507 -259 496 -270 Q485 -281 470 -281 Q454 -281 443 -270 Q432 -259 432 -244 Q432 -228 443 -217 Q454 -206 470 -206 Z "/>
<glyph glyph-name="uni0686" unicode="چ" horiz-adv-x="626" d="M333 473 Q452 475 520 395 Q571 336 571 220 L571 83 Q571 46 542 20 Q519 0 490 0 L284 0 Q201 0 155 -42 Q113 -81 113 -151 Q113 -231 160 -277 Q209 -327 290 -327 Q301 -327 313 -325 L313 -341 L287 -373 Q280 -374 272 -374 Q185 -374 126 -324 Q55 -264 55 -156 Q55 -57 117 -3 Q180 53 298 53 L466 53 Q513 53 513 100 L513 232 Q513 320 472 366 Q424 421 331 422 Q261 423 179 399 L179 445 Q262 472 333 473 Z M296 -128 Q311 -128 322 -139 Q333 -150 333 -166 Q333 -181 322 -192 Q311 -203 296 -203 Q280 -203 269 -192 Q258 -181 258 -166 Q258 -150 269 -139 Q280 -128 296 -128 Z M395 -128 Q410 -128 421 -139 Q432 -150 432 -166 Q432 -181 421 -192 Q410 -203 395 -203 Q379 -203 368 -192 Q357 -181 357 -166 Q357 -150 368 -139 Q379 -128 395 -128 Z M345 -206 Q361 -206 372 -217 Q383 -228 383 -243 Q383 -259 372 -270 Q361 -281 345 -281 Q330 -281 319 -270 Q308 -259 308 -243 Q308 -228 319 -217 Q330 -206 345 -206 Z "/>
<glyph glyph-name="uni0688" unicode="ڈ" horiz-adv-x="510" d="M169 794 L167 698 Q190 734 222 754 Q252 774 285 775 Q320 776 341 756 Q364 733 364 691 L364 663 Q364 643 353 628 Q337 606 307 606 L114 606 L114 638 L140 638 L140 794 L169 794 Z M283 740 Q254 739 219 711 Q186 681 167 638 L305 638 Q329 638 329 662 L329 687 Q329 718 313 731 Q302 740 283 740 Z M254 471 Q326 464 377 420 Q450 359 450 259 L450 83 Q450 49 424 24 Q401 0 368 0 L39 0 L39 53 L345 53 Q392 53 392 100 L392 247 Q392 320 347 371 Q296 426 192 426 Q184 426 174 425 Q157 425 140 422 L140 466 Q180 473 220 473 Q238 473 254 471 Z "/>
<glyph glyph-name="uni0691" unicode="ڑ" horiz-adv-x="384" d="M131 792 L131 696 Q154 733 186 752 Q215 772 248 773 Q283 774 304 754 Q327 731 327 689 L327 661 Q327 641 316 626 Q301 604 270 604 L77 604 L77 636 L103 636 L103 792 L131 792 Z M247 738 Q217 737 183 709 Q149 680 131 636 L268 636 Q292 636 292 660 L292 685 Q292 716 276 729 Q265 738 247 738 Z M315 460 L315 -2 Q314 -101 263 -160 Q217 -215 134 -231 Q100 -238 57 -238 Q49 -238 39 -238 Q31 -238 17 -237 L-12 -201 L-12 -184 Q14 -186 40 -186 Q85 -186 122 -178 Q188 -166 220 -128 Q257 -86 257 -6 L257 460 L315 460 Z "/>
<glyph glyph-name="uni0698" unicode="ژ" horiz-adv-x="384" d="M240 758 Q255 758 266 747 Q277 736 277 721 Q277 705 266 694 Q255 683 240 683 Q224 683 213 694 Q202 705 202 721 Q202 736 213 747 Q224 758 240 758 Z M190 679 Q205 679 216.5 668 Q228 657 228 642 Q228 626 216.5 615 Q205 604 190 604 Q174 604 163 615 Q152 626 152 642 Q152 657 163 668 Q174 679 190 679 Z M288 679 Q304 679 315 668 Q326 657 326 642 Q326 626 315 615 Q304 604 288 604 Q273 604 262 615 Q251 626 251 642 Q251 657 262 668 Q273 679 288 679 Z M315 460 L315 -2 Q314 -101 263 -160 Q217 -215 134 -231 Q100 -238 57 -238 Q49 -238 39 -238 Q31 -238 17 -237 L-12 -201 L-12 -184 Q14 -186 40 -186 Q85 -186 122 -178 Q188 -166 220 -128 Q257 -86 257 -6 L257 460 L315 460 Z "/>
<glyph glyph-name="uni06A1" unicode="ڡ" horiz-adv-x="971" d="M730 472 Q812 472 860 431 Q916 383 916 293 L916 83 Q916 49 890 24 Q867 0 835 0 L212 0 Q156 0 114 42 Q69 88 69 153 L69 364 L99 388 L127 388 L127 158 Q127 115 153 87 Q183 53 236 53 L572 53 Q503 120 503 240 Q503 355 571 417 Q631 472 730 472 Z M730 419 Q640 419 597 361 Q561 312 561 226 Q561 144 606 96 Q647 53 714 53 L811 53 Q858 53 858 100 L858 292 Q858 357 820 390 Q787 419 730 419 Z "/>
<glyph glyph-name="uni06A4" unicode="ڤ" horiz-adv-x="971" d="M731 758 Q746 758 757 747 Q768 736 768 721 Q768 705 757 694 Q746 683 731 683 Q715 683 704 694 Q693 705 693 721 Q693 736 704 747 Q715 758 731 758 Z M681 679 Q697 679 708 668 Q719 657 719 642 Q719 626 708 615 Q697 604 681 604 Q665 604 654 615 Q643 626 643 642 Q643 657 654 668 Q665 679 681 679 Z M780 679 Q795 679 806 668 Q817 657 817 642 Q817 626 806 615 Q795 604 780 604 Q764 604 753 615 Q742 626 742 642 Q742 657 753 668 Q764 679 780 679 Z M730 472 Q812 472 860 431 Q916 383 916 293 L916 83 Q916 49 890 24 Q867 0 835 0 L212 0 Q156 0 114 42 Q69 88 69 153 L69 364 L99 388 L127 388 L127 158 Q127 115 153 87 Q183 53 236 53 L572 53 Q503 120 503 240 Q503 355 571 417 Q631 472 730 472 Z M730 419 Q640 419 597 361 Q561 312 561 226 Q561 144 606 96 Q647 53 714 53 L811 53 Q858 53 858 100 L858 292 Q858 357 820 390 Q787 419 730 419 Z "/>
<glyph glyph-name="uni06A9" unicode="ک" horiz-adv-x="926" d="M776 732 L776 681 L508 528 Q592 514 667 465 Q730 425 778 366 Q871 249 871 114 Q871 99 870 84 Q867 55 852 33 Q828 0 787 0 L212 0 Q156 0 114 42 Q69 88 69 153 L69 364 L99 388 L127 388 L127 158 Q127 115 153 87 Q183 53 236 53 L764 53 Q793 53 804 70 Q811 82 813 103 Q813 110 813 119 Q813 229 735 329 Q684 395 612 435 Q546 472 477 480 Q472 481 472 486 L472 558 L776 732 Z "/>
<glyph glyph-name="uni06AF" unicode="گ" horiz-adv-x="926" d="M472 649 L776 824 L776 782 L472 606 L472 649 Z M776 732 L776 681 L508 528 Q592 514 667 465 Q730 425 778 366 Q871 249 871 114 Q871 99 870 84 Q867 55 852 33 Q828 0 787 0 L212 0 Q156 0 114 42 Q69 88 69 153 L69 364 L99 388 L127 388 L127 158 Q127 115 153 87 Q183 53 236 53 L764 53 Q793 53 804 70 Q811 82 813 103 Q813 110 813 119 Q813 229 735 329 Q684 395 612 435 Q546 472 477 480 Q472 481 472 486 L472 558 L776 732 Z "/>
<glyph glyph-name="uni06BA" unicode="ں" horiz-adv-x="762" d="M693 460 L693 -2 Q693 -114 627 -176 Q561 -239 441 -239 L321 -239 Q209 -239 143 -183 Q69 -122 69 -2 L69 229 L99 253 L127 253 L127 -3 Q127 -89 164 -130 Q197 -166 282 -182 Q306 -186 382 -186 Q457 -186 481 -182 Q554 -168 590 -133 Q635 -89 635 -3 L635 460 L693 460 Z "/>
<glyph glyph-name="uni06BE" unicode="ھ" horiz-adv-x="794" d="M481 500 Q597 501 660 445 Q739 374 739 191 L739 83 Q739 49 713 24 Q690 0 657 0 L423 0 Q362 0 342 4 L338 4 Q319 0 255 0 L79 0 L55 30 L55 53 L225 53 Q200 78 184 112 Q161 162 161 216 Q161 319 216 372 Q237 392 265 403 L265 450 Q311 471 366 485 Q425 499 481 500 Z M477 447 Q405 447 324 416 Q331 417 339 417 Q411 417 455 379 Q517 327 517 217 Q517 166 495 117 Q478 82 452 53 L634 53 Q656 53 668 65 Q681 77 681 100 L681 177 Q681 267 666 320 Q651 373 618 402 Q566 447 477 447 Z M337 371 Q282 371 251 336 Q214 295 214 213 Q214 165 237 126 Q271 66 338 58 Q407 67 442 129 Q464 168 464 213 Q464 296 424 337 Q392 371 337 371 Z "/>
<glyph glyph-name="uni06C0" unicode="ۀ" horiz-adv-x="522" d="M299 736 Q304 737 310 737 Q333 737 358 728 L358 698 Q338 705 321 705 Q313 705 307 704 Q287 700 277 688 Q264 672 264 647 Q264 624 279 606 Q298 586 327 586 L391 586 L391 574 L374 554 L211 554 L211 586 L254 586 Q230 614 230 657 Q230 688 248 709 Q267 733 299 736 Z M466 479 L466 170 Q466 97 430 53 Q377 -9 270 -9 Q188 -9 132 36 Q55 97 55 223 Q55 298 85 357 Q110 406 154 436 Q212 477 293 477 Q347 477 408 454 L438 479 L466 479 Z M298 423 Q233 421 187 386 Q115 331 114 223 Q114 133 163 85 Q204 44 271 44 Q345 44 377 79 Q408 114 408 170 L408 401 Q349 424 298 423 Z "/>
<glyph glyph-name="uni06C1" unicode="ہ" horiz-adv-x="522" d="M466 479 L466 170 Q466 97 430 53 Q377 -9 270 -9 Q188 -9 132 36 Q55 97 55 223 Q55 298 85 357 Q110 406 154 436 Q212 477 293 477 Q347 477 408 454 L438 479 L466 479 Z M298 423 Q233 421 187 386 Q115 331 114 223 Q114 133 163 85 Q204 44 271 44 Q345 44 377 79 Q408 114 408 170 L408 401 Q349 424 298 423 Z "/>
<glyph glyph-name="uni06C2" unicode="ۂ" horiz-adv-x="522" d="M299 736 Q304 737 310 737 Q333 737 358 728 L358 698 Q338 705 321 705 Q313 705 307 704 Q287 700 277 688 Q264 672 264 647 Q264 624 279 606 Q298 586 327 586 L391 586 L391 574 L374 554 L211 554 L211 586 L254 586 Q230 614 230 657 Q230 688 248 709 Q267 733 299 736 Z M466 479 L466 170 Q466 97 430 53 Q377 -9 270 -9 Q188 -9 132 36 Q55 97 55 223 Q55 298 85 357 Q110 406 154 436 Q212 477 293 477 Q347 477 408 454 L438 479 L466 479 Z M298 423 Q233 421 187 386 Q115 331 114 223 Q114 133 163 85 Q204 44 271 44 Q345 44 377 79 Q408 114 408 170 L408 401 Q349 424 298 423 Z "/>
<glyph glyph-name="uni06C3" unicode="ۃ" horiz-adv-x="522" d="M330 679 Q345 679 356 668 Q367 657 367 642 Q367 626 356 615 Q345 604 330 604 Q314 604 303 615 Q292 626 292 642 Q292 657 303 668 Q314 679 330 679 Z M429 679 Q444 679 455 668 Q466 657 466 642 Q466 626 455 615 Q444 604 429 604 Q413 604 402 615 Q391 626 391 642 Q391 657 402 668 Q413 679 429 679 Z M466 479 L466 170 Q466 97 430 53 Q377 -9 270 -9 Q188 -9 132 36 Q55 97 55 223 Q55 298 85 357 Q110 406 154 436 Q212 477 293 477 Q347 477 408 454 L438 479 L466 479 Z M298 423 Q233 421 187 386 Q115 331 114 223 Q114 133 163 85 Q204 44 271 44 Q345 44 377 79 Q408 114 408 170 L408 401 Q349 424 298 423 Z "/>
<glyph glyph-name="uni06CC" unicode="ی" horiz-adv-x="744" d="M475 473 Q481 473 487 473 Q545 473 606 451 L606 406 Q527 425 484 424 Q428 423 398 398 Q364 371 357 311 Q356 298 356 285 Q356 245 374 221 Q389 201 415 188 Q441 175 504 157 Q576 137 607 120 Q654 95 675 58 Q697 19 697 -28 Q697 -61 686 -96 Q662 -173 598 -206 Q537 -239 441 -239 L321 -239 Q209 -239 143 -184 Q69 -122 69 -2 L69 151 L99 175 L127 175 L127 -3 Q127 -90 164 -130 Q198 -167 282 -182 Q301 -185 360 -185 Q440 -185 481 -182 Q541 -177 582 -148 Q616 -124 632 -86 Q642 -61 642 -33 Q642 1 627 32 Q614 59 587 74 Q560 89 493 106 Q438 119 409 130 Q365 145 339 173 Q299 219 299 295 Q299 303 299 313 Q307 408 374 448 Q416 472 475 473 Z "/>
<glyph glyph-name="uni06D2" unicode="ے" horiz-adv-x="628" d="M431 487 L431 443 Q431 391 418 358 Q405 325 374 301 Q340 275 262 242 Q187 210 171 202.5 Q155 195 136 181 Q95 152 95 116 Q96 87 115.5 70 Q135 53 169 53 L620 53 L620 36 L591 0 L159 0 Q101 0 68 36 Q42 66 41 108 Q41 142 58.5 172.5 Q76 203 106 223 Q141 246 223 279 Q296 309 322 329 Q351 349 362 373.5 Q373 398 373 443 L373 487 L431 487 Z "/>
<glyph glyph-name="uni06D3" unicode="ۓ" horiz-adv-x="628" d="M199 669 Q204 669 210 669 Q234 669 259 660 L259 630 Q239 637 221 637 Q214 637 207 636 Q187 632 177 620 Q164 604 164 579 Q164 556 179 538 Q199 518 227 518 L291 518 L291 506 L275 486 L111 486 L111 518 L154 518 Q130 546 130 589 Q130 620 148 641 Q167 665 199 669 Z M431 487 L431 443 Q431 391 418 358 Q405 325 374 301 Q340 275 262 242 Q187 210 171 202.5 Q155 195 136 181 Q95 152 95 116 Q96 87 115.5 70 Q135 53 169 53 L620 53 L620 36 L591 0 L159 0 Q101 0 68 36 Q42 66 41 108 Q41 142 58.5 172.5 Q76 203 106 223 Q141 246 223 279 Q296 309 322 329 Q351 349 362 373.5 Q373 398 373 443 L373 487 L431 487 Z "/>
<glyph glyph-name="uni06D4" unicode="۔" horiz-adv-x="161" d="M164 53 L164 0 L-4 0 L-4 53 L164 53 Z "/>
<glyph glyph-name="uni06F0" unicode="۰" horiz-adv-x="213" d="M107 296 L169 234 L169 206 L108 144 L32 219 L107 296 Z "/>
<glyph glyph-name="uni06F1" unicode="۱" horiz-adv-x="242" d="M150 674 L150 24 L120 0 L92 0 L92 674 L150 674 Z "/>
<glyph glyph-name="uni06F2" unicode="۲" horiz-adv-x="520" d="M308 686 Q313 687 319 687 Q388 687 451 666 L451 609 Q387 631 330 631 Q280 631 241 615 Q150 573 150 460 L150 24 L120 0 L92 0 L92 460 Q92 557 137 614 Q175 661 241 678 Q271 686 308 686 Z "/>
<glyph glyph-name="uni06F3" unicode="۳" horiz-adv-x="738" d="M150 674 L150 409 Q165 402 195.5 396 Q226 390 250 390 Q317 390 341 416 Q361 437 361 478 L361 674 L416 674 L416 488 Q416 446 407 418 Q424 407 456.5 399 Q489 391 519 391 Q585 391 610 417 Q628 438 628 478 L628 674 L683 674 L683 493 Q683 443 671 412 Q661 385 641 368 Q603 336 527 336 Q486 336 446.5 348 Q407 360 388 379 Q363 356 335.5 346.5 Q308 337 267 336 Q211 335 150 358 L150 24 L120 0 L92 0 L92 674 L150 674 Z "/>
<glyph glyph-name="uni06F4" unicode="۴" horiz-adv-x="556" d="M348 678 Q365 681 382 681 Q416 681 450 670 L450 619 Q426 623 404 623 Q380 623 358 619 Q320 611 287 591 Q232 560 193 498 Q168 458 154 406 Q237 370 331 369 Q413 368 501 387 L501 365 L476 332 Q429 316 344 316 Q340 316 332 316 Q206 319 150 358 L150 24 L120 0 L92 0 L92 674 L150 674 L150 513 Q169 567 210 608 Q268 666 348 678 Z "/>
<glyph glyph-name="uni06F5" unicode="۵" horiz-adv-x="559" d="M283 44 L279 44 Q263 23 240 9 Q217 -4 192 -7 Q184 -8 176 -8 Q139 -8 110 15 Q61 52 50 134 Q46 166 46 197 Q46 238 54 279 Q69 363 109 441 Q157 530 238 607 L216 626 L227 668 L235 677 Q310 624 349 585 Q388 546 429 486 Q472 420 490 367 Q503 328 509 292 Q518 247 518 194 Q518 148 510 115 Q495 50 453 18 Q421 -7 379 -7 Q374 -7 369 -7 Q339 -4 314 12 Q295 26 283 44 Z M278 82 L287 82 Q328 45 370 45 Q419 45 443 100 Q462 142 462 204 Q462 241 455 281 Q440 359 408 421 Q363 505 278 573 Q251 557 213.5 507 Q176 457 149 402 Q127 353 111 288 Q99 241 99 195 Q99 138 118 99 Q144 46 197 45 Q237 45 278 82 Z "/>
<glyph glyph-name="uni06F6" unicode="۶" horiz-adv-x="485" d="M279 686 Q325 687 359 674 L359 626 Q331 631 301 632 Q278 632 259 628 Q224 620 201 600 Q161 565 158 504 Q156 425 205 389 Q238 366 287 366 Q292 366 294 366 Q380 388 448 392 L448 377 L416 337 Q348 330 296 308 Q219 274 167 207 Q112 134 86 24 L57 0 L30 0 Q46 136 108 231 Q153 297 213 329 Q169 337 135 376 Q92 429 92 502 Q93 578 129 620 Q155 651 194.5 668.5 Q234 686 279 686 Z "/>
<glyph glyph-name="uni06F7" unicode="۷" horiz-adv-x="472" d="M442 679 L307 118 Q292 59 280 34 Q271 17 260 6 Q256 2 251 0 L221 0 Q215 2 210 7 Q201 17 192 37 Q178 65 165 118 L30 679 L97 679 L236 54 L376 679 L442 679 Z "/>
<glyph glyph-name="uni06F8" unicode="۸" horiz-adv-x="472" d="M221 679 L251 679 Q255 677 260 673 Q272 661 281 641 Q293 619 307 561 L442 0 L376 0 L236 625 L97 0 L30 0 L165 561 Q177 607 188 634 Q198 659 210 672 Q215 676 221 679 Z "/>
<glyph glyph-name="uni06F9" unicode="۹" horiz-adv-x="508" d="M249 686 Q323 686 371 648 Q434 596 434 493 L434 24 L404 0 L376 0 L376 297 L260 297 Q164 297 108 342 Q45 391 45 485 Q45 577 99 628 Q155 686 249 686 Z M242 634 Q180 634 139 587 Q102 546 103 486 Q104 425 141 391 Q183 350 264 350 L376 350 L376 499 Q376 562 341 598 Q306 634 242 634 Z "/>
<glyph glyph-name="Euro" unicode="€" horiz-adv-x="638" d="M415 681 Q480 681 533 641 L533 588 Q484 625 424 625 Q349 625 296 566 Q251 513 232 426 L447 426 L447 372 L225 372 Q224 358 224 334 Q224 308 225 290 L447 290 L447 237 L234 237 Q256 124 315 76 Q353 45 445 44 Q514 44 546 62 L546 37 L522 7 Q475 -9 418 -9 Q316 -9 251 61 Q193 124 174 237 L92 237 L92 290 L167 290 Q166 317 166 333 Q166 352 167 372 L92 372 L92 426 L172 426 Q188 539 250 609 Q314 681 415 681 Z "/>
<glyph glyph-name="uni2153" unicode="⅓" horiz-adv-x="632" d="M167 673 L167 282 L144 263 L122 263 L122 620 L39 560 L16 589 L122 673 L167 673 Z M509 673 L113 0 L59 0 L456 673 L509 673 Z M480 412 Q486 413 491 413 Q520 413 543 403 Q570 390 585 362 Q596 341 596 315 Q596 272 575 246 Q554 220 519 212 Q569 208 596 167 Q614 139 614 105 Q614 84 608 67 Q597 33 565 16 Q534 -3 483 -3 Q478 -3 472 -3 Q433 -1 399 8 L383 31 L383 46 Q428 33 468 33 Q522 32 549 55 Q571 72 571 101 Q571 134 552 156 Q517 197 432 195 L432 226 L471 226 Q502 226 525 243 Q555 265 554 312 Q553 352 527 367 Q511 376 487 376 Q484 376 481 376 Q446 374 410 361 L410 395 Q441 409 480 412 Z "/>
<glyph glyph-name="uni2154" unicode="⅔" horiz-adv-x="718" d="M109 673 Q130 678 150 678 Q167 678 182 674 Q215 665 234 639 Q252 612 252 576 Q252 565 250 554 Q244 508 192 446 Q179 429 93 334 L66 305 L252 305 L252 289 L231 264 L14 264 L14 306 L49 345 L147 452 Q184 494 196 516 Q208 538 211 562 Q212 569 212 575 Q212 599 199 613 Q187 628 168 633 Q159 635 149 635 Q108 635 63 605 L37 639 Q75 664 109 673 Z M611 673 L215 0 L161 0 L558 673 L611 673 Z M565 412 Q571 413 576 413 Q605 413 628 403 Q655 390 669 362 Q681 341 681 315 Q681 273 660 246 Q640 220 604 212 Q654 208 681 167 Q699 139 699 105 Q699 84 693 67 Q682 33 650 16 Q619 -3 568 -3 Q563 -3 557 -3 Q518 -1 484 8 L468 31 L468 46 Q513 33 553 33 Q607 32 634 55 Q656 72 656 101 Q656 134 637 156 Q602 197 517 195 L517 226 L556 226 Q587 226 610 243 Q640 265 639 312 Q638 352 612 367 Q596 376 572 376 Q569 376 566 376 Q531 374 495 361 L495 395 Q526 409 565 412 Z "/>
<glyph glyph-name="oneeighth" unicode="⅛" horiz-adv-x="636" d="M167 673 L167 282 L144 263 L122 263 L122 620 L39 560 L16 589 L122 673 L167 673 Z M509 673 L113 0 L59 0 L456 673 L509 673 Z M486 410 Q542 410 571 382 Q596 360 596 321 Q596 284 574 256 Q554 231 520 210 Q560 193 587 164 Q616 133 615 95 Q614 57 591 31 Q556 -6 485 -6 Q412 -6 379 29 Q356 54 356 94 Q356 144 398 179 Q424 198 457 208 Q425 225 401 253 Q376 285 376 320 Q376 367 410 391 Q438 410 486 410 Z M486 377 Q444 377 427 351 Q417 336 417 314 Q417 285 437 261 Q456 239 488 226 Q518 242 536 263 Q556 286 556 317 Q556 342 540 358 Q521 377 486 377 Z M487 193 Q436 173 417 153 Q399 133 399 102 Q399 32 486 32 Q529 32 552 51 Q573 69 573 102 Q573 130 558 148 Q543 169 487 193 Z "/>
<glyph glyph-name="threeeighths" unicode="⅜" horiz-adv-x="708" d="M114 685 Q120 686 125 686 Q154 686 177 676 Q205 663 218 635 Q230 614 230 588 Q230 546 209 519 Q189 493 153 485 Q203 481 230 440 Q248 411 248 377 Q248 357 242 340 Q231 305 199 288 Q168 269 117 269 Q112 269 106 269 Q66 271 33 281 L17 303 L17 318 Q62 305 102 305 Q156 304 183 327 Q205 344 205 374 Q205 406 186 428 Q152 468 74 468 Q71 468 66 468 L66 499 L105 499 Q136 499 159 516 Q189 539 188 586 Q187 626 161 641 Q145 650 121 650 Q118 650 115 650 Q81 648 44 634 L44 668 Q75 682 114 685 Z M581 673 L185 0 L132 0 L528 673 L581 673 Z M559 410 Q615 410 644 382 Q669 360 669 321 Q669 284 646 256 Q627 231 592 210 Q632 193 659 164 Q689 133 688 95 Q687 57 664 31 Q629 -6 558 -6 Q485 -6 452 29 Q429 54 429 94 Q429 144 471 179 Q496 198 529 208 Q497 225 474 253 Q449 285 449 320 Q449 367 483 391 Q511 410 559 410 Z M559 377 Q516 377 499 351 Q489 336 489 314 Q489 285 509 261 Q528 239 560 226 Q591 241 609 263 Q629 286 629 317 Q629 342 613 358 Q594 377 559 377 Z M560 193 Q509 173 490 153 Q472 132 472 102 Q472 32 559 32 Q602 32 625 51 Q646 69 646 102 Q646 130 631 148 Q616 169 560 193 Z "/>
<glyph glyph-name="fiveeighths" unicode="⅝" horiz-adv-x="712" d="M223 673 L223 635 L70 635 L62 501 Q92 504 116 504 Q165 504 194 489 Q220 476 236 447 Q251 418 251 383 Q251 379 251 375 Q248 312 207 281 Q170 252 106 252 Q73 253 40 259 L16 289 L16 300 Q59 289 102 290 Q155 290 182 310 Q209 331 210 375 Q210 401 199.5 422.5 Q189 444 171 454 Q148 466 111 466 Q86 467 51 461 Q44 460 23 456 L35 673 L223 673 Z M585 673 L189 0 L135 0 L532 673 L585 673 Z M562 410 Q618 410 647 382 Q672 360 672 321 Q672 284 650 256 Q630 231 596 210 Q636 193 663 164 Q692 133 691 95 Q690 57 667 31 Q632 -6 561 -6 Q488 -6 455 29 Q432 54 432 94 Q432 144 474 179 Q500 198 532 208 Q500 225 477 253 Q452 285 452 320 Q452 367 486 391 Q514 410 562 410 Z M562 377 Q519 377 502 351 Q492 336 492 314 Q492 285 513 261 Q531 239 564 226 Q594 241 612 263 Q632 286 632 317 Q632 342 616 358 Q597 377 562 377 Z M563 193 Q512 173 493 153 Q475 133 475 102 Q475 32 562 32 Q605 32 628 51 Q649 69 649 102 Q649 130 634 148 Q619 169 563 193 Z "/>
<glyph glyph-name="seveneighths" unicode="⅞" horiz-adv-x="650" d="M523 673 L127 0 L73 0 L469 673 L523 673 Z M267 672 L267 631 L122 290 L84 259 L60 259 L221 629 L11 629 L11 672 L267 672 Z M500 410 Q556 410 585 382 Q610 360 610 321 Q610 284 588 256 Q568 231 533 210 Q574 193 601 164 Q630 133 629 95 Q628 57 605 31 Q570 -6 499 -6 Q426 -6 393 29 Q370 54 370 94 Q370 144 412 179 Q438 198 470 208 Q439 225 415 253 Q390 285 390 320 Q390 367 424 391 Q452 410 500 410 Z M500 377 Q457 377 440 351 Q430 336 430 314 Q430 285 450 261 Q469 239 502 226 Q532 242 550 263 Q570 286 570 317 Q570 342 554 358 Q535 377 500 377 Z M501 193 Q450 173 431 153 Q413 133 413 102 Q413 32 500 32 Q543 32 566 51 Q587 69 587 102 Q587 130 572 148 Q557 169 501 193 Z "/>
<glyph glyph-name="uni25CC" unicode="◌" horiz-adv-x="545" d="M271 512 Q281 512 288.5 504.5 Q296 497 296 487 Q296 477 288.5 469.5 Q281 462 271 462 Q261 462 253.5 469.5 Q246 477 246 487 Q246 497 253.5 504.5 Q261 512 271 512 Z M191 495 Q201 495 208.5 487.5 Q216 480 216 470 Q216 460 208.5 452.5 Q201 445 191 445 Q181 445 173.5 452.5 Q166 460 166 470 Q166 480 173.5 487.5 Q181 495 191 495 Z M352 495 Q362 495 369.5 487.5 Q377 480 377 470 Q377 460 369.5 452.5 Q362 445 352 445 Q342 445 334.5 452.5 Q327 460 327 470 Q327 480 334.5 487.5 Q342 495 352 495 Z M123 450 Q133 450 140.5 442.5 Q148 435 148 425 Q148 415 140.5 407.5 Q133 400 123 400 Q113 400 105.5 407.5 Q98 415 98 425 Q98 435 105.5 442.5 Q113 450 123 450 Z M420 450 Q430 450 437.5 442.5 Q445 435 445 425 Q445 415 437.5 407.5 Q430 400 420 400 Q410 400 402.5 407.5 Q395 415 395 425 Q395 435 402.5 442.5 Q410 450 420 450 Z M78 381 Q88 381 95.5 373.5 Q103 366 103 356 Q103 346 95.5 338.5 Q88 331 78 331 Q68 331 60.5 338.5 Q53 346 53 356 Q53 366 60.5 373.5 Q68 381 78 381 Z M464 381 Q474 381 481.5 373.5 Q489 366 489 356 Q489 346 481.5 338.5 Q474 331 464 331 Q454 331 446.5 338.5 Q439 346 439 356 Q439 366 446.5 373.5 Q454 381 464 381 Z M62 301 Q72 301 79.5 293.5 Q87 286 87 276 Q87 266 79.5 258.5 Q72 251 62 251 Q52 251 44.5 258.5 Q37 266 37 276 Q37 286 44.5 293.5 Q52 301 62 301 Z M483 299 Q493 299 500.5 291.5 Q508 284 508 274 Q508 264 500.5 256.5 Q493 249 483 249 Q473 249 465.5 256.5 Q458 264 458 274 Q458 284 465.5 291.5 Q473 299 483 299 Z M78 222 Q88 222 95.5 214.5 Q103 207 103 197 Q103 187 95.5 179.5 Q88 172 78 172 Q68 172 60.5 179.5 Q53 187 53 197 Q53 207 60.5 214.5 Q68 222 78 222 Z M464 218 Q474 218 481.5 210.5 Q489 203 489 193 Q489 183 481.5 175.5 Q474 168 464 168 Q454 168 446.5 175.5 Q439 183 439 193 Q439 203 446.5 210.5 Q454 218 464 218 Z M123 153 Q133 153 140.5 145.5 Q148 138 148 128 Q148 118 140.5 110.5 Q133 103 123 103 Q113 103 105.5 110.5 Q98 118 98 128 Q98 138 105.5 145.5 Q113 153 123 153 Z M420 149 Q430 149 437.5 141.5 Q445 134 445 124 Q445 114 437.5 106.5 Q430 99 420 99 Q410 99 402.5 106.5 Q395 114 395 124 Q395 134 402.5 141.5 Q410 149 420 149 Z M191 104 Q201 104 208.5 96.5 Q216 89 216 79 Q216 69 208.5 61.5 Q201 54 191 54 Q181 54 173.5 61.5 Q166 69 166 79 Q166 89 173.5 96.5 Q181 104 191 104 Z M352 104 Q362 104 369.5 96.5 Q377 89 377 79 Q377 69 369.5 61.5 Q362 54 352 54 Q342 54 334.5 61.5 Q327 69 327 79 Q327 89 334.5 96.5 Q342 104 352 104 Z M271 88 Q281 88 288.5 80.5 Q296 73 296 63 Q296 53 288.5 45.5 Q281 38 271 38 Q261 38 253.5 45.5 Q246 53 246 63 Q246 73 253.5 80.5 Q261 88 271 88 Z "/>
<glyph glyph-name="uniE002" unicode="" horiz-adv-x="669" d="M266 794 Q278 797 290 797 Q315 797 332.5 785 Q350 773 357 753 Q360 743 360 733 Q360 715 350 697.5 Q340 680 324 670 Q297 655 257 655 Q226 655 193 664 Q183 667 161 674 Q124 686 114 686 Q88 686 56 659 L39 671 Q72 725 114 727 Q134 728 172 714 Q198 756 226 775 Q245 789 266 794 Z M277 762 Q260 757 244 747 Q222 732 201 703 Q246 690 273 690 Q285 690 294 692 Q329 702 329 730 Q329 736 327 742 Q319 764 291 764 Q284 764 277 762 Z M600 716 L600 83 Q600 49 574 24 Q553 2 522 0 L58 0 L34 30 L34 53 L322 53 L144 593 L206 593 L383 53 L495 53 Q517 53 529 65 Q542 77 542 100 L542 716 L600 716 Z "/>
<glyph glyph-name="uniE003" unicode="" horiz-adv-x="645" d="M266 794 Q278 797 290 797 Q315 797 332.5 785 Q350 773 357 753 Q360 743 360 733 Q360 715 350 697.5 Q340 680 324 670 Q297 655 257 655 Q226 655 193 664 Q183 667 161 674 Q124 686 114 686 Q88 686 56 659 L39 671 Q72 725 114 727 Q134 728 172 714 Q198 756 226 775 Q245 789 266 794 Z M277 762 Q260 757 244 747 Q222 732 201 703 Q246 690 273 690 Q285 690 294 692 Q329 702 329 730 Q329 736 327 742 Q319 764 291 764 Q284 764 277 762 Z M600 716 L600 83 Q600 68 594 53 L649 53 L649 0 L606 0 L583 31 L581 31 Q570 19 557 11 Q541 1 522 0 L58 0 L34 30 L34 53 L322 53 L144 593 L206 593 L383 53 L495 53 Q519 53 531 67 Q542 79 542 100 L542 716 L600 716 Z "/>
<glyph glyph-name="uniE004" unicode="" d="M328 727 Q331 717 331 707 Q331 689 321 671.5 Q311 654 295 645 Q269 629 228 629 Q197 629 164 638 Q153 641 133 648 Q95 660 85 660 Q59 660 27 633 L10 646 Q43 699 85 701 Q105 702 143 689 Q169 731 197 750 Q217 764 237 769 Q250 772 261 772 Q286 772 303.5 760 Q321 748 328 727 Z M172 678 Q217 664 244 664 Q256 664 265 666 Q300 676 300 705 Q300 711 298 716 Q291 739 262 739 Q255 739 248 737 Q231 732 215 722 Q193 707 172 678 Z "/>
<glyph glyph-name="uniE005" unicode="" d="M129 931 L129 737 L111 722 L93 722 L93 931 L129 931 Z M223 684 L223 579 Q223 560 211 547 Q199 534 177 534 L134 534 L123 545 Q120 542 116 539 Q108 534 99 534 L46 534 Q27 534 13 546 Q0 559 0 579 L0 644 L17 659 L35 659 L35 582 Q35 576 38 572 Q43 565 52 565 L77 565 Q85 565 89 570 Q93 574 93 581 L93 659 L129 659 L129 565 L170 565 Q179 565 183 571 Q188 575 188 582 L188 684 L223 684 Z "/>
<glyph glyph-name="uniE006" unicode="" d="M155 934 Q183 933 201 912.5 Q219 892 219 861 Q219 829 199 805.5 Q179 782 143 771 L21 737 L7 753 L7 766 L115 796 Q100 804 89.5 822.5 Q79 841 79 862 Q79 864 79 866 Q81 897 101 915.5 Q121 934 151 934 L155 934 Z M150 904 Q132 904 120.5 892 Q109 880 109 860 Q109 842 121 827 Q133 812 151 807 Q167 815 178 829.5 Q189 844 189 859 Q189 879 178.5 891.5 Q168 904 150 904 Z M223 674 L223 570 Q223 550 211 538 Q199 524 177 524 L134 524 L123 535 Q120 532 116 529 Q108 524 99 524 L46 524 Q27 524 13 536 Q0 550 0 570 L0 635 L17 650 L35 650 L35 575 Q35 569 38 565 Q43 558 52 558 L77 558 Q85 558 89 563 Q93 567 93 574 L93 650 L129 650 L129 558 L170 558 Q179 558 183 563 Q188 568 188 575 L188 674 L223 674 Z "/>
<glyph glyph-name="uniE007" unicode="" d="M259 934 Q284 933 301 917 Q318 901 322 876 Q323 868 323 861 Q323 834 307 811 Q294 793 278 782 Q239 753 191 753 Q190 753 186 753 Q125 755 85 802 L31 755 L12 755 L0 766 L90 845 Q106 819 133 803 Q160 787 188 787 Q207 787 221 794 Q183 820 183 861 Q183 864 183 867 Q186 898 207 916.5 Q228 935 259 934 Z M253 905 Q236 905 224.5 893 Q213 881 213 861 Q213 843 225 827.5 Q237 812 255 807 Q271 815 281.5 830 Q292 845 292 859 Q292 879 281.5 891.5 Q271 904 253 905 Z M281 674 L281 570 Q281 551 269 538 Q257 525 235 525 L192 525 L181 536 Q178 533 174 530 Q165 525 157 525 L104 525 Q85 525 71 537 Q58 550 58 570 L58 635 L75 650 L93 650 L93 573 Q93 567 96 563 Q101 556 110 556 L135 556 Q143 556 147 561 Q151 565 151 572 L151 650 L187 650 L187 556 L228 556 Q237 556 241 562 Q246 566 246 573 L246 674 L281 674 Z "/>
<glyph glyph-name="uniE008" unicode="" d="M216 824 L216 790 L21 737 L6 755 L6 766 L216 824 Z M223 674 L223 570 Q223 551 211 538 Q199 525 177 525 L134 525 L123 536 Q120 533 116 530 Q107 525 99 525 L46 525 Q27 525 13 537 Q0 550 0 570 L0 635 L17 650 L35 650 L35 573 Q35 567 38 563 Q43 556 52 556 L77 556 Q85 556 89 561 Q93 565 93 572 L93 650 L129 650 L129 556 L170 556 Q179 556 183 562 Q188 566 188 573 L188 674 L223 674 Z "/>
<glyph glyph-name="uniE009" unicode="" d="M216 910 L216 875 L21 822 L6 840 L6 852 L216 910 Z M216 824 L216 790 L21 737 L6 755 L6 766 L216 824 Z M223 674 L223 570 Q223 551 211 538 Q199 525 177 525 L134 525 L123 536 Q120 533 116 530 Q107 525 99 525 L46 525 Q27 525 13 537 Q0 550 0 570 L0 635 L17 650 L35 650 L35 573 Q35 567 38 563 Q43 556 52 556 L77 556 Q85 556 89 561 Q93 565 93 572 L93 650 L129 650 L129 556 L170 556 Q179 556 183 562 Q188 566 188 573 L188 674 L223 674 Z "/>
<glyph glyph-name="uniE00A" unicode="" d="M223 834 L223 730 Q223 711 211 698 Q199 685 177 685 L134 685 L123 696 Q120 693 116 690 Q107 685 99 685 L46 685 Q27 685 13 697 Q0 710 0 730 L0 795 L17 810 L35 810 L35 733 Q35 727 38 723 Q43 716 52 716 L77 716 Q85 716 89 721 Q93 725 93 732 L93 810 L129 810 L129 716 L170 716 Q179 716 183 722 Q188 726 188 733 L188 834 L223 834 Z M20 531 L5 550 L5 561 L215 619 L215 585 L20 531 Z "/>
<glyph glyph-name="uniE00B" unicode="" d="M223 944 L223 839 Q223 820 211 807 Q199 794 177 794 L134 794 L123 805 Q120 802 116 799 Q108 794 99 794 L46 794 Q27 794 13 806 Q0 819 0 839 L0 904 L17 919 L35 919 L35 842 Q35 836 38 832 Q43 825 52 825 L77 825 Q85 825 89 830 Q93 834 93 841 L93 919 L129 919 L129 825 L170 825 Q179 825 183 831 Q188 835 188 842 L188 944 L223 944 Z M20 644 L5 663 L5 674 L215 732 L215 698 L20 644 Z M20 559 L5 577 L5 589 L215 647 L215 612 L20 559 Z "/>
<glyph glyph-name="uniE00C" unicode="" d="M38 99 Q53 99 64 88 Q75 77 75 61 Q75 45 64 34 Q53 23 38 23 Q22 23 11 34 Q0 45 0 61 Q0 77 11 88 Q22 99 38 99 Z "/>
<glyph glyph-name="uniE00F" unicode="" horiz-adv-x="1576" d="M693 716 L693 -2 Q693 -114 627 -176 Q561 -239 441 -239 L321 -239 Q208 -239 143 -183 Q69 -121 69 -2 L69 230 L99 254 L127 254 L127 -3 Q127 -89 164 -130 Q197 -166 282 -182 Q306 -186 382 -186 Q457 -186 481 -182 Q554 -168 590 -133 Q635 -89 635 -3 L635 716 L693 716 Z M911 716 L911 100 Q911 78 923 66 Q935 53 958 53 L1090 53 Q1112 53 1124 64 Q1137 77 1137 100 L1137 460 L1195 460 L1195 83 Q1195 49 1169 24 Q1146 0 1113 0 L935 0 Q902 0 879 24 Q853 49 853 83 L853 716 L911 716 Z M1507 460 L1507 -2 Q1506 -101 1456 -160 Q1409 -215 1327 -231 Q1292 -238 1249 -238 Q1241 -238 1231 -238 Q1223 -238 1209 -237 L1180 -201 L1180 -184 Q1206 -186 1232 -186 Q1277 -186 1314 -178 Q1380 -166 1412 -128 Q1449 -86 1449 -6 L1449 460 L1507 460 Z M975 -128 Q991 -128 1002 -139 Q1013 -150 1013 -166 Q1013 -181 1002 -192 Q991 -203 975 -203 Q959 -203 948 -192 Q937 -181 937 -166 Q937 -150 948 -139 Q959 -128 975 -128 Z M1074 -128 Q1089 -128 1100 -139 Q1111 -150 1111 -166 Q1111 -181 1100 -192 Q1089 -203 1074 -203 Q1058 -203 1047 -192 Q1036 -181 1036 -166 Q1036 -150 1047 -139 Q1058 -128 1074 -128 Z "/>
<glyph glyph-name="uniE010" unicode="" horiz-adv-x="618" d="M316 685 Q309 686 309 697 Q309 705 312 710 L314 710 Q313 706 313 702 Q313 695 318 693 L319 693 Q322 693 323 695 Q323 697 323 700 Q323 704 323 710 L326 713 L327 713 Q329 706 329 696 Q330 694 332 694 Q335 694 336 696 Q337 697 337 698 Q337 700 336 704 Q333 709 333 711 Q333 715 336 717 Q337 714 339 709 Q342 703 342 700 Q342 699 342 698 Q341 687 331 687 Q327 687 324 690 Q321 684 316 685 Z M217 659 L213 662 Q248 677 254 688 Q243 695 242 701 Q242 706 247 710.5 Q252 715 258 715 Q261 715 263 714 Q266 712 266 705 Q266 698 263 692 L270 689 L267 683 Q265 684 259 686 Q248 672 217 659 Z M500 243 Q519 246 569 271 L572 268 L564 234 Q519 205 463 205 Q411 205 395 236 Q386 207 360 207 Q334 207 326 234 Q300 207 283.5 197 Q267 187 248 187 Q238 187 227 190 L227 146 Q227 110 267 110 Q274 110 281 111 Q325 118 411 151 Q461 170 472 170 Q491 170 491 151 Q491 149 491 147 Q485 115 453 92 L449 98 Q473 118 473 133 Q473 135 473 137 Q471 140 466 140 Q461 140 453 138 L350 101 Q292 81 262 82 Q240 83 228 96 Q231 68 240 58 Q276 41 276 37 Q276 36 275 33 Q268 15 263 14 Q258 13 245 20 Q226 30 210 30 Q202 30 195 28 Q182 25 154 9 Q115 -12 97 -12 Q77 -12 64 8.5 Q51 29 52 58 Q54 90 71 115 Q88 140 115 149 L117 149 L118 145 Q97 137 81.5 111.5 Q66 86 66 59 Q66 16 96 16 Q119 16 161 39 Q194 58 212 61 Q207 78 207 109 L207 198 Q185 212 170 245 Q167 243 156 224 Q118 163 93 163 Q73 163 60 183.5 Q47 204 48 233 Q50 265 67 290 Q84 315 111 324 L112 324 L114 319 Q94 312 78 286.5 Q62 261 62 234 Q62 191 92 191 Q113 191 134 222 L156 257 Q167 272 175 272 Q177 272 179 271 Q184 269 191 255 Q200 237 207 231 L207 346 L151 345 Q104 345 84 351 Q64 357 55 374 Q52 379 52 385 Q52 400 63 416 Q74 432 90 439 L140 463 Q162 476 162 497 L161 685 Q161 697 179 714 L180 714 L181 495 Q181 462 207 445 L207 484 Q207 499 227 511 L228 511 Q229 511 229 437 Q244 435 245 435 Q317 435 386 467 L386 491 Q386 505 405 518 L406 518 L407 477 Q427 487 434 487 Q439 487 439 481 Q439 477 438 471 Q436 466 436 461 Q436 447 450 440 Q480 511 523 515 Q525 515 526 515 Q544 515 557 502.5 Q570 490 570 473 Q570 465 568 457 Q559 435 531.5 420 Q504 405 473 405 Q458 405 447 410 L435 393 L432 393 Q433 405 437 416 Q421 429 417 456 L407 449 L407 380 L531 382 Q574 383 574 356 Q574 344 564 330 L561 331 Q561 333 561 334 Q561 353 531 353 L407 351 L407 282 Q407 239 467 239 Q453 259 453 280 Q453 288 456 295 Q461 314 475 325.5 Q489 337 504 337 Q531 337 560 314 L557 304 Q539 309 523 309 Q488 309 472 284 Q473 276 482 262.5 Q491 249 500 243 Z M452 515 L448 515 L443 684 Q440 687 440 690 Q440 692 441 693 Q446 709 451 714 L454 714 Q462 702 468 683 Q474 664 473 653 L472 653 L462 663 L466 551 Q466 527 452 515 Z M247 703 Q250 700 257 695 Q259 699 259 702 Q259 705 257 706 Q256 707 255 707 Q252 707 247 703 Z M230 531 Q218 531 211 548 Q204 565 204 592 Q204 610 208 627 L209 627 L210 623 Q209 615 209 608 Q209 557 229 557 Q237 557 241.5 566.5 Q246 576 253 607 Q263 652 277 652 Q282 652 282 641 Q282 633 280 618 Q277 604 277 593 Q277 558 295 557 Q313 556 327 580 Q330 593 330 613 Q330 637 325 657 Q326 660 331.5 669 Q337 678 340 681 L341 681 Q348 664 348 594 Q348 585 349 579 Q350 557 374 557 Q397 557 406 578 Q406 590 395 623 Q386 647 384 658 Q381 660 381 663 Q381 666 390 682 L393 682 L396 678 Q415 655 416 649 L415 648 L406 652 L422 586 Q422 579 421 574 Q418 556 405.5 543.5 Q393 531 377 531 Q362 531 350 540.5 Q338 550 334 563 Q323 530 296 530 Q264 530 264 588 Q264 602 266 618 Q264 612 259 589 Q247 531 230 531 Z M251 460 L257 472 Q339 502 374 509 L368 497 Q339 493 303 480 L251 460 Z M547 461 Q541 485 523 485 Q511 485 494.5 471.5 Q478 458 466 437 Q472 436 478 436 Q497 436 516.5 443 Q536 450 547 461 Z M207 375 L207 411 Q172 421 164 456 Q151 438 109 423 Q74 410 70 398 Q74 385 96 380 Q118 375 169 375 L207 375 Z M229 407 L229 375 L386 380 L386 438 Q320 406 244 406 Q234 406 229 407 Z M387 254 Q389 261 389 307 Q389 323 389 351 L227 346 L227 219 Q238 214 249 214 Q283 214 325 262 Q331 269 335 269 Q339 269 342 261 L346 250 Q353 240 366 240 Q380 240 387 254 Z M252 269 L258 280 Q342 311 375 318 L368 306 Q340 302 303 288 L252 269 Z M126 309 L129 309 Q122 292 122 281 Q122 270 127 269 L128 269 Q132 269 135 276 L136 276 Q136 275 136 274 Q136 265 131.5 259 Q127 253 122 254 Q112 256 112 272 Q112 294 126 309 Z M340 175 L354 189 L375 170 L354 148 L340 163 L325 148 L306 170 L325 189 L340 175 Z M536 165 Q552 165 561.5 150 Q571 135 571 111 Q571 75 550 43 Q533 19 509 3.5 Q485 -12 463 -12 Q459 -12 456 -12 Q437 -9 426 4.5 Q415 18 415 37 Q415 69 441 91 L445 85 Q430 73 430 55 Q430 42 437 31.5 Q444 21 454 19 Q459 18 464 18 Q488 18 512.5 37 Q537 56 551 85 Q547 88 531 90 Q516 93 511 95 Q497 102 497 116 Q497 124 502 135 Q514 165 536 165 Z M517 126 Q517 122 535 119 Q547 117 553 116 Q542 136 532 137 Q527 137 522 134 Q517 131 517 126 Z M117 93 Q111 93 111 102 Q111 112 120 112 Q127 112 133 101 Q137 117 147 117 Q155 117 155 109 Q155 103 152 98 L151 98 Q150 103 147 104 Q139 104 138 77 L136 75 Q136 82 131.5 89 Q127 96 123 96 Q120 93 117 93 Z M335 51 L335 53 Q339 51 346 51 Q356 51 365 58 Q353 65 346 65 Q343 65 341 63 L339 64 Q339 68 343.5 72 Q348 76 352 76 Q353 76 354 76 L377 69 Q383 68 383 67 Q383 66 382 64 Q374 45 352 45 Q343 45 335 51 Z M386 22 L394 29 Q399 23 399 14 Q399 11 399 10 Q397 -1 386 -1 Q379 -1 376 5 Q371 -1 365 -1 Q357 -1 354 5 Q342 -2 319 -2 Q306 -2 292 0 L292 2 Q300 2 303 2 Q346 2 358 19 L360 19 Q360 10 366 10 Q374 10 375 21 L376 21 Q378 10 387 10 Q388 10 390 10 Q390 19 386 22 Z "/>
<glyph glyph-name="uniE015" unicode="" horiz-adv-x="683" d="M127 175 L127 -3 Q127 -90 164 -130 Q197 -166 282 -182 Q306 -186 382 -186 Q458 -186 481 -182 Q555 -168 590 -133 Q636 -89 636 0 L550 0 L527 28 L527 53 L711 53 L711 0 L693 0 Q693 -115 628 -176 Q562 -239 441 -239 L321 -239 Q209 -239 143 -183 Q69 -122 69 -2 L69 151 L99 175 L127 175 Z "/>
<glyph glyph-name="uniE016" unicode="" horiz-adv-x="683" d="M127 175 L127 -3 Q127 -90 164 -130 Q197 -166 282 -182 Q306 -186 382 -186 Q458 -186 481 -182 Q555 -168 590 -133 Q636 -89 636 0 L550 0 L527 28 L527 53 L711 53 L711 0 L693 0 Q693 -115 628 -176 Q562 -239 441 -239 L321 -239 Q209 -239 143 -183 Q69 -122 69 -2 L69 151 L99 175 L127 175 Z M329 -298 Q344 -298 355 -309 Q366 -320 366 -336 Q366 -351 355 -362 Q344 -373 329 -373 Q313 -373 302 -362 Q291 -351 291 -336 Q291 -320 302 -309 Q313 -298 329 -298 Z M428 -298 Q443 -298 454 -309 Q465 -320 465 -336 Q465 -351 454 -362 Q443 -373 428 -373 Q412 -373 401 -362 Q390 -351 390 -336 Q390 -320 401 -309 Q412 -298 428 -298 Z "/>
<glyph glyph-name="uniE017" unicode="" horiz-adv-x="711" d="M157 473 Q162 473 168 473 Q192 473 217 464 L217 434 Q197 441 179 441 Q172 441 165 440 Q146 436 136 424 Q123 408 123 383 Q123 360 138 342 Q157 322 185 322 L249 322 L249 310 L233 290 L69 290 L69 322 L112 322 Q89 350 89 393 Q89 424 106 445 Q125 469 157 473 Z M155 175 L155 -3 Q155 -89 192 -130 Q225 -166 310 -182 Q334 -186 409 -186 Q485 -186 509 -182 Q582 -168 618 -133 Q663 -89 663 0 L577 0 L555 28 L555 53 L738 53 L738 0 L720 0 Q720 -115 655 -176 Q589 -239 469 -239 L349 -239 Q236 -239 171 -183 Q97 -122 97 -2 L97 151 L127 175 L155 175 Z "/>
<glyph glyph-name="uniE018" unicode="" horiz-adv-x="915" d="M870 460 L870 83 Q870 69 864 53 L919 53 L919 0 L876 0 L853 31 L851 31 Q824 0 788 0 L212 0 Q156 0 114 42 Q69 88 69 153 L69 364 L99 388 L127 388 L127 158 Q127 114 153 87 Q183 53 236 53 L765 53 Q788 53 801 66 Q812 78 812 100 L812 460 L870 460 Z "/>
<glyph glyph-name="uniE019" unicode="" horiz-adv-x="281" d="M235 460 L235 83 Q235 69 229 53 L284 53 L284 0 L241 0 L218 31 L216 31 Q190 0 154 0 L-4 0 L-4 53 L130 53 Q154 53 167 67 Q177 79 177 100 L177 460 L235 460 Z "/>
<glyph glyph-name="uniE01F" unicode="" horiz-adv-x="645" d="M143 673 L183 673 Q196 673 218.5 654.5 Q241 636 256 613 Q292 560 301 481 Q302 469 302 456 Q303 389 273 346 Q256 323 231 310 Q202 297 165 297 Q130 297 103 308 Q74 320 56 345 Q25 387 27 457 Q27 465 29 484 Q39 573 80 626 Q93 644 113 658.5 Q133 673 143 673 Z M573 673 L176 0 L123 0 L519 673 L573 673 Z M170 637 L159 637 Q123 623 103 585 Q74 529 74 456 Q73 398 94 371 Q119 337 164 337 Q199 337 221 355 Q253 382 254 454 Q254 524 227 579 Q204 625 170 637 Z M488 403 L501 403 Q516 397 526 380 Q534 366 539 347 L622 0 L576 0 L495 357 L415 0 L369 0 L452 347 Q457 370 466 384 Q475 398 488 403 Z "/>
<glyph glyph-name="uniE020" unicode="" horiz-adv-x="547" d="M473 673 L76 0 L23 0 L419 673 L473 673 Z M130 673 L130 286 L111 270 L83 270 L83 673 L130 673 Z M388 403 L400 403 Q416 397 426 380 Q434 366 439 347 L522 0 L475 0 L395 357 L315 0 L269 0 L352 347 Q357 370 366 384 Q375 398 388 403 Z "/>
<glyph glyph-name="uniE021" unicode="" horiz-adv-x="623" d="M473 673 L76 0 L23 0 L419 673 L473 673 Z M133 673 L133 286 L114 270 L86 270 L86 673 L133 673 Z M507 412 Q561 409 595 395 L595 348 Q541 367 497 367 Q470 367 449 359 Q388 338 388 265 L388 16 L369 0 L341 0 L341 266 Q341 328 370 365 Q394 396 437 408 Q454 413 487 413 Q496 413 507 412 Z "/>
<glyph glyph-name="uniE022" unicode="" horiz-adv-x="586" d="M473 673 L76 0 L23 0 L419 673 L473 673 Z M135 673 L135 286 L116 270 L88 270 L88 673 L135 673 Z M471 421 Q510 422 540 403 L540 368 Q511 381 481 381 Q477 381 473 381 Q438 378 418.5 360.5 Q399 343 399 313 Q399 237 492 237 L531 237 L531 216 L507 192 L490 192 Q451 192 421 172 Q384 149 383 113 Q382 83 402 66 Q422 49 461 49 L565 49 L565 30 L540 0 L462 0 Q403 0 370 24 Q334 51 334 103 Q334 142 363 176 Q386 202 412 208 Q392 219 378 236 Q354 265 353 307 Q352 364 394 396 Q426 420 471 421 Z "/>
<glyph glyph-name="uniE023" unicode="" horiz-adv-x="804" d="M473 673 L76 0 L23 0 L419 673 L473 673 Z M130 673 L130 286 L111 270 L83 270 L83 673 L130 673 Z M432 406 L432 249 Q457 244 481 244 Q489 244 496 245 Q531 248 544 265 Q555 280 555 311 L555 403 L600 403 L600 307 Q600 281 593 264 Q630 242 672 243 Q708 245 724 264 Q739 282 739 314 L739 403 L783 403 L783 316 Q783 280 775 258 Q767 238 753 225 Q726 200 674 200 Q614 200 575 230 Q545 202 493 201 Q464 201 432 209 L432 16 L413 0 L385 0 L385 406 L432 406 Z "/>
<glyph glyph-name="uniE024" unicode="" horiz-adv-x="603" d="M278 676 L195 329 Q190 310 182 296 Q173 280 157 273 L144 273 Q131 278 122 292 Q114 306 108 329 L25 676 L71 676 L151 319 L232 676 L278 676 Z M529 673 L133 0 L79 0 L476 673 L529 673 Z M444 403 L457 403 Q473 397 483 380 Q490 366 495 347 L578 0 L532 0 L451 357 L371 0 L325 0 L408 347 Q414 370 422 384 Q431 398 444 403 Z "/>
<glyph glyph-name="uniE025" unicode="" horiz-adv-x="700" d="M93 676 L93 520 Q118 515 142 515 Q151 515 158 516 Q193 519 206 536 Q217 551 217 583 L217 674 L262 674 L262 578 Q262 552 256 535 Q292 513 334 514 Q370 516 386 535 Q401 553 401 585 L401 674 L445 674 L445 587 Q445 551 437 529 Q429 509 415 496 Q388 471 336 471 Q275 471 237 501 Q207 473 154 472 Q125 472 93 480 L93 287 L74 271 L46 271 L46 676 L93 676 Z M631 673 L234 0 L181 0 L577 673 L631 673 Z M546 403 L558 403 Q574 397 584 380 Q592 366 597 347 L679 0 L633 0 L553 357 L473 0 L427 0 L510 347 Q515 370 524 384 Q533 398 546 403 Z "/>
<glyph glyph-name="uniE026" unicode="" horiz-adv-x="744" d="M93 676 L93 520 Q118 515 142 515 Q151 515 158 516 Q193 519 206 536 Q217 551 217 583 L217 674 L262 674 L262 578 Q262 552 256 535 Q292 513 334 514 Q370 516 386 535 Q401 553 401 585 L401 674 L445 674 L445 587 Q445 551 437 529 Q429 509 415 496 Q388 471 336 471 Q275 471 237 501 Q207 473 154 472 Q125 472 93 480 L93 287 L74 271 L46 271 L46 676 L93 676 Z M631 673 L234 0 L181 0 L577 673 L631 673 Z M629 421 Q668 422 698 403 L698 368 Q669 381 639 381 Q635 381 631 381 Q596 378 576.5 360.5 Q557 343 557 313 Q557 237 650 237 L689 237 L689 216 L665 192 L648 192 Q609 192 579 172 Q542 149 541 113 Q540 83 560 66 Q580 49 619 49 L723 49 L723 30 L698 0 L620 0 Q561 0 528 24 Q492 51 492 103 Q492 142 521 176 Q544 202 570 208 Q550 219 536 236 Q512 265 511 307 Q510 364 552 396 Q584 420 629 421 Z "/>
<glyph glyph-name="uniE027" unicode="" horiz-adv-x="825" d="M226 682 Q280 679 315 665 L315 618 Q261 637 217 637 Q189 637 168 629 Q107 608 107 534 L107 286 L88 270 L60 270 L60 535 Q60 598 89 635 Q113 666 156 678 Q174 683 206 683 Q216 683 226 682 Z M496 673 L99 0 L46 0 L442 673 L496 673 Z M455 406 L455 249 Q480 244 504 244 Q512 244 519 245 Q554 248 567 265 Q578 280 578 311 L578 403 L623 403 L623 307 Q623 281 616 264 Q653 242 695 243 Q731 245 747 264 Q762 282 762 314 L762 403 L806 403 L806 316 Q806 280 798 258 Q790 238 776 225 Q749 200 697 200 Q637 200 598 230 Q568 202 516 201 Q487 201 455 209 L455 16 L436 0 L408 0 L408 406 L455 406 Z "/>
<glyph glyph-name="uniE028" unicode="" d="M38 99 Q53 99 64 88 Q75 77 75 61 Q75 45 64 34 Q53 23 38 23 Q22 23 11 34 Q0 45 0 61 Q0 77 11 88 Q22 99 38 99 Z "/>
<glyph glyph-name="uniE030" unicode="" horiz-adv-x="915" d="M870 460 L870 83 Q870 69 864 53 L919 53 L919 0 L876 0 L853 31 L851 31 Q824 0 788 0 L212 0 Q156 0 114 42 Q69 88 69 153 L69 364 L99 388 L127 388 L127 158 Q127 114 153 87 Q183 53 236 53 L765 53 Q788 53 801 66 Q812 78 812 100 L812 460 L870 460 Z "/>
<glyph glyph-name="uniE031" unicode="" horiz-adv-x="281" d="M235 460 L235 83 Q235 69 229 53 L284 53 L284 0 L241 0 L218 31 L216 31 Q190 0 154 0 L-4 0 L-4 53 L130 53 Q154 53 167 67 Q177 79 177 100 L177 460 L235 460 Z "/>
<glyph glyph-name="uniE032" unicode="" horiz-adv-x="304" d="M235 460 L235 83 Q235 49 209 24 Q186 0 154 0 L-4 0 L-4 53 L130 53 Q152 53 164 65 Q177 77 177 100 L177 460 L235 460 Z "/>
<glyph glyph-name="uniE033" unicode="" horiz-adv-x="938" d="M707 472 Q792 472 848 420 Q917 355 917 237 Q917 129 841 53 L942 53 L942 0 L803 0 Q727 0 708 5 L705 5 Q686 0 610 0 L212 0 Q156 0 114 42 Q69 88 69 153 L69 364 L99 388 L127 388 L127 158 Q127 115 153 87 Q183 53 236 53 L572 53 Q497 128 497 237 Q497 351 561 415 Q618 472 707 472 Z M707 419 Q627 419 586 359 Q555 313 555 238 Q555 160 599 107 Q641 57 707 53 Q782 57 825 122 Q858 172 859 238 Q860 329 813 377 Q774 419 707 419 Z "/>
<glyph glyph-name="uniE034" unicode="" horiz-adv-x="593" d="M361 472 Q446 472 502 420 Q571 355 571 237 Q571 129 495 53 L596 53 L596 0 L457 0 Q381 0 362 5 L360 5 Q340 0 264 0 L-4 0 L-4 53 L226 53 Q152 128 152 237 Q152 351 216 415 Q272 472 361 472 Z M361 419 Q281 419 242 360 Q210 313 210 238 Q210 160 254 107 Q295 57 361 53 Q436 57 479 122 Q512 172 513 238 Q515 327 469 376 Q429 419 361 419 Z "/>
<glyph glyph-name="uniE035" unicode="" horiz-adv-x="618" d="M376 472 Q458 472 506 431 Q562 383 562 293 L562 83 Q562 49 536 24 Q513 0 481 0 L-4 0 L-4 53 L219 53 Q183 87 166 134 Q150 181 150 240 Q150 346 208 408 Q270 472 376 472 Z M377 419 Q290 419 249 367 Q208 316 208 226 Q208 149 248 102 Q289 53 360 53 L457 53 Q504 53 504 100 L504 292 Q504 352 471 385 Q437 419 377 419 Z "/>
<glyph glyph-name="uniE036" unicode="" horiz-adv-x="721" d="M507 472 Q589 472 637 431 Q693 383 693 293 L693 53 L725 53 L725 0 L693 0 Q693 -115 627 -176 Q561 -239 441 -239 L321 -239 Q209 -239 143 -183 Q69 -122 69 -2 L69 161 L99 185 L127 185 L127 -3 Q127 -90 164 -130 Q197 -166 282 -182 Q306 -186 382 -186 Q457 -186 481 -182 Q554 -168 590 -133 Q635 -89 635 0 L505 0 Q396 0 337 65 Q281 128 281 239 Q281 350 340 411 Q400 472 507 472 Z M508 419 Q422 419 378 367 Q338 321 338 239 Q338 177 360 132 Q400 53 491 53 L635 53 L635 292 Q635 352 602 385 Q568 419 508 419 Z "/>
<glyph glyph-name="uniE041" unicode="" horiz-adv-x="983" d="M914 460 L914 83 Q914 49 888 24 Q865 0 833 0 L693 0 Q693 -115 627 -176 Q561 -239 441 -239 L321 -239 Q209 -239 143 -183 Q69 -122 69 -2 L69 151 L99 174 L127 174 L127 -3 Q127 -90 164 -130 Q197 -166 282 -182 Q306 -186 382 -186 Q457 -186 481 -182 Q555 -168 590 -133 Q635 -89 635 0 L550 0 L527 28 L527 53 L809 53 Q856 53 856 100 L856 460 L914 460 Z M773 -128 Q789 -128 800 -139 Q811 -150 811 -166 Q811 -181 800 -192 Q789 -203 773 -203 Q757 -203 746 -192 Q735 -181 735 -166 Q735 -150 746 -139 Q757 -128 773 -128 Z M872 -128 Q887 -128 898 -139 Q909 -150 909 -166 Q909 -181 898 -192 Q887 -203 872 -203 Q856 -203 845 -192 Q834 -181 834 -166 Q834 -150 845 -139 Q856 -128 872 -128 Z M823 -206 Q838 -206 849 -217 Q860 -228 860 -244 Q860 -259 849 -270 Q838 -281 823 -281 Q807 -281 796 -270 Q785 -259 785 -244 Q785 -228 796 -217 Q807 -206 823 -206 Z "/>
<glyph glyph-name="uniE042" unicode="" horiz-adv-x="959" d="M914 460 L914 83 Q914 69 908 53 L962 53 L962 0 L920 0 L897 31 L895 31 Q869 0 833 0 L693 0 Q693 -115 627 -176 Q561 -239 441 -239 L321 -239 Q209 -239 143 -183 Q69 -122 69 -2 L69 151 L99 174 L127 174 L127 -3 Q127 -90 164 -130 Q197 -166 282 -182 Q306 -186 382 -186 Q457 -186 481 -182 Q555 -168 590 -133 Q635 -89 635 0 L550 0 L527 28 L527 53 L809 53 Q856 53 856 100 L856 460 L914 460 Z M773 -128 Q789 -128 800 -139 Q811 -150 811 -166 Q811 -181 800 -192 Q789 -203 773 -203 Q757 -203 746 -192 Q735 -181 735 -166 Q735 -150 746 -139 Q757 -128 773 -128 Z M872 -128 Q887 -128 898 -139 Q909 -150 909 -166 Q909 -181 898 -192 Q887 -203 872 -203 Q856 -203 845 -192 Q834 -181 834 -166 Q834 -150 845 -139 Q856 -128 872 -128 Z M823 -206 Q838 -206 849 -217 Q860 -228 860 -244 Q860 -259 849 -270 Q838 -281 823 -281 Q807 -281 796 -270 Q785 -259 785 -244 Q785 -228 796 -217 Q807 -206 823 -206 Z "/>
<glyph glyph-name="uniE043" unicode="" horiz-adv-x="983" d="M914 460 L914 83 Q914 49 888 24 Q865 0 833 0 L693 0 Q693 -115 627 -176 Q561 -239 441 -239 L321 -239 Q209 -239 143 -183 Q69 -122 69 -2 L69 151 L99 174 L127 174 L127 -3 Q127 -90 164 -130 Q197 -166 282 -182 Q306 -186 382 -186 Q457 -186 481 -182 Q555 -168 590 -133 Q635 -89 635 0 L550 0 L527 28 L527 53 L809 53 Q856 53 856 100 L856 460 L914 460 Z M778 -123 Q794 -123 805 -134 Q816 -145 816 -161 Q816 -176 805 -187 Q794 -198 778 -198 Q762 -198 751 -187 Q740 -176 740 -161 Q740 -145 751 -134 Q762 -123 778 -123 Z M877 -123 Q892 -123 903 -134 Q914 -145 914 -161 Q914 -176 903 -187 Q892 -198 877 -198 Q861 -198 850 -187 Q839 -176 839 -161 Q839 -145 850 -134 Q861 -123 877 -123 Z M827 -201 Q842 -201 853 -212 Q864 -223 864 -239 Q864 -254 853 -265 Q842 -276 827 -276 Q811 -276 800 -265 Q789 -254 789 -239 Q789 -223 800 -212 Q811 -201 827 -201 Z M329 -298 Q344 -298 355 -309 Q366 -320 366 -336 Q366 -351 355 -362 Q344 -373 329 -373 Q313 -373 302 -362 Q291 -351 291 -336 Q291 -320 302 -309 Q313 -298 329 -298 Z M428 -298 Q443 -298 454 -309 Q465 -320 465 -336 Q465 -351 454 -362 Q443 -373 428 -373 Q412 -373 401 -362 Q390 -351 390 -336 Q390 -320 401 -309 Q412 -298 428 -298 Z "/>
<glyph glyph-name="uniE044" unicode="" horiz-adv-x="959" d="M914 460 L914 83 Q914 68 908 53 L963 53 L963 0 L920 0 L897 31 L895 31 Q869 0 833 0 L692 0 Q692 -115 627 -176 Q561 -239 441 -239 L321 -239 Q209 -239 143 -183 Q69 -122 69 -2 L69 151 L99 174 L127 174 L127 -3 Q127 -90 164 -130 Q197 -166 282 -182 Q306 -186 382 -186 Q457 -186 481 -182 Q554 -168 590 -133 Q635 -89 635 0 L549 0 L527 28 L527 53 L809 53 Q856 53 856 100 L856 460 L914 460 Z M778 -128 Q794 -128 805 -139 Q816 -150 816 -166 Q816 -181 805 -192 Q794 -203 778 -203 Q762 -203 751 -192 Q740 -181 740 -166 Q740 -150 751 -139 Q762 -128 778 -128 Z M877 -128 Q892 -128 903 -139 Q914 -150 914 -166 Q914 -181 903 -192 Q892 -203 877 -203 Q861 -203 850 -192 Q839 -181 839 -166 Q839 -150 850 -139 Q861 -128 877 -128 Z M827 -206 Q842 -206 853 -217 Q864 -228 864 -244 Q864 -259 853 -270 Q842 -281 827 -281 Q811 -281 800 -270 Q789 -259 789 -244 Q789 -228 800 -217 Q811 -206 827 -206 Z M329 -298 Q344 -298 355 -309 Q366 -320 366 -336 Q366 -351 355 -362 Q344 -373 329 -373 Q313 -373 302 -362 Q291 -351 291 -336 Q291 -320 302 -309 Q313 -298 329 -298 Z M428 -298 Q443 -298 454 -309 Q465 -320 465 -336 Q465 -351 454 -362 Q443 -373 428 -373 Q412 -373 401 -362 Q390 -351 390 -336 Q390 -320 401 -309 Q412 -298 428 -298 Z "/>
<glyph glyph-name="uniE045" unicode="" horiz-adv-x="1007" d="M157 472 Q163 473 168 473 Q192 473 217 464 L217 434 Q197 441 179 441 Q172 441 165 440 Q146 436 136 424 Q123 408 123 383 Q123 360 138 342 Q157 322 185 322 L249 322 L249 310 L233 290 L69 290 L69 322 L112 322 Q89 350 89 393 Q89 424 106 445 Q125 469 157 472 Z M937 460 L937 83 Q937 49 911 24 Q888 0 856 0 L716 0 Q716 -115 651 -176 Q585 -239 465 -239 L344 -239 Q232 -239 166 -183 Q93 -122 93 -2 L93 150 L122 174 L150 174 L150 -3 Q150 -90 187 -130 Q220 -166 305 -182 Q329 -186 405 -186 Q481 -186 505 -182 Q578 -168 614 -133 Q659 -89 659 0 L573 0 L551 28 L551 53 L833 53 Q880 53 880 100 L880 460 L937 460 Z M801 -104 Q817 -104 828 -115 Q839 -126 839 -142 Q839 -158 828 -169 Q817 -180 801 -180 Q785 -180 774 -169 Q763 -158 763 -142 Q763 -126 774 -115 Q785 -104 801 -104 Z M900 -104 Q916 -104 927 -115 Q938 -126 938 -142 Q938 -158 927 -169 Q916 -180 900 -180 Q884 -180 873 -169 Q862 -158 862 -142 Q862 -126 873 -115 Q884 -104 900 -104 Z M851 -183 Q866 -183 877 -194 Q888 -205 888 -221 Q888 -236 877 -247 Q866 -258 851 -258 Q835 -258 824 -247 Q813 -236 813 -221 Q813 -205 824 -194 Q835 -183 851 -183 Z "/>
<glyph glyph-name="uniE046" unicode="" horiz-adv-x="983" d="M157 473 Q162 473 168 473 Q192 473 217 464 L217 434 Q197 441 179 441 Q172 441 165 440 Q146 436 136 424 Q123 408 123 383 Q123 360 138 342 Q157 322 185 322 L249 322 L249 310 L233 290 L69 290 L69 322 L112 322 Q89 350 89 393 Q89 424 106 445 Q125 469 157 473 Z M938 460 L938 83 Q938 69 932 53 L986 53 L986 0 L944 0 L921 31 L919 31 Q893 0 857 0 L716 0 Q716 -115 651 -176 Q585 -239 464 -239 L344 -239 Q232 -239 166 -183 Q92 -122 92 -2 L92 151 L122 174 L150 174 L150 -3 Q150 -90 187 -130 Q220 -166 305 -182 Q329 -186 405 -186 Q481 -186 504 -182 Q578 -168 613 -133 Q659 -89 659 0 L573 0 L550 28 L550 53 L833 53 Q880 53 880 100 L880 460 L938 460 Z M802 -104 Q818 -104 829 -115 Q840 -126 840 -142 Q840 -158 829 -169 Q818 -180 802 -180 Q786 -180 775 -169 Q764 -158 764 -142 Q764 -126 775 -115 Q786 -104 802 -104 Z M900 -104 Q915 -104 926 -115 Q937 -126 937 -142 Q937 -158 926 -169 Q915 -180 900 -180 Q884 -180 873 -169 Q862 -158 862 -142 Q862 -126 873 -115 Q884 -104 900 -104 Z M851 -183 Q866 -183 877 -194 Q888 -205 888 -221 Q888 -236 877 -247 Q866 -258 851 -258 Q835 -258 824 -247 Q813 -236 813 -221 Q813 -205 824 -194 Q835 -183 851 -183 Z "/>
<glyph glyph-name="uniE047" unicode="" horiz-adv-x="1068" d="M918 732 L918 681 L651 528 Q734 514 809 465 Q872 425 920 366 Q1013 249 1013 114 Q1013 99 1012 84 Q1009 55 994 33 Q970 0 929 0 L721 0 Q721 -115 655 -176 Q589 -239 469 -239 L349 -239 Q236 -239 171 -183 Q97 -122 97 -2 L97 151 L127 175 L155 175 L155 -3 Q155 -90 192 -130 Q225 -166 310 -182 Q334 -186 410 -186 Q486 -186 509 -182 Q583 -168 618 -133 Q663 -89 663 0 L578 0 L555 28 L555 53 L906 53 Q932 53 944 66 Q954 78 956 103 Q956 110 956 119 Q956 229 878 329 Q827 395 754 435 Q689 472 620 480 Q615 481 615 486 L615 558 L918 732 Z M157 472 Q163 473 168 473 Q192 473 217 464 L217 434 Q197 441 179 441 Q172 441 165 440 Q146 436 136 424 Q123 408 123 383 Q123 360 138 342 Q157 322 185 322 L249 322 L249 310 L233 290 L69 290 L69 322 L112 322 Q89 350 89 393 Q89 424 106 445 Q125 469 157 472 Z "/>
<glyph glyph-name="uniE048" unicode="" horiz-adv-x="1033" d="M918 732 L918 681 L651 528 Q734 514 809 465 Q872 425 920 366 Q1013 249 1013 114 Q1013 98 1012 84 Q1010 69 1004 53 L1037 53 L1037 0 L1017 0 L995 31 L992 31 Q969 0 929 0 L721 0 Q721 -115 655 -176 Q589 -239 469 -239 L349 -239 Q236 -239 171 -183 Q97 -122 97 -2 L97 151 L127 175 L155 175 L155 -3 Q155 -90 192 -130 Q225 -166 310 -182 Q334 -186 410 -186 Q486 -186 509 -182 Q583 -168 618 -133 Q663 -89 663 0 L578 0 L555 28 L555 53 L906 53 Q932 53 944 66 Q954 78 956 103 Q956 110 956 119 Q956 229 878 329 Q827 395 755 435 Q689 472 620 480 Q615 481 615 486 L615 558 L918 732 Z M157 472 Q163 473 168 473 Q192 473 217 464 L217 434 Q197 441 179 441 Q172 441 165 440 Q146 436 136 424 Q123 408 123 383 Q123 360 138 342 Q157 322 185 322 L249 322 L249 310 L233 290 L69 290 L69 322 L112 322 Q89 350 89 393 Q89 424 106 445 Q125 469 157 472 Z "/>
<glyph glyph-name="uniE049" unicode="" horiz-adv-x="1040" d="M587 649 L890 824 L890 782 L587 606 L587 649 Z M890 732 L890 681 L623 528 Q706 514 781 465 Q844 425 892 366 Q985 249 985 114 Q985 99 984 84 Q981 55 966 33 Q942 0 901 0 L693 0 Q693 -115 627 -176 Q561 -239 441 -239 L321 -239 Q208 -239 143 -183 Q69 -122 69 -2 L69 151 L99 175 L127 175 L127 -3 Q127 -90 164 -130 Q197 -166 282 -182 Q306 -186 382 -186 Q458 -186 481 -182 Q555 -168 590 -133 Q635 -89 635 0 L550 0 L527 28 L527 53 L878 53 Q902 53 913.5 64.5 Q925 76 927 103 Q927 110 927 119 Q927 229 849 329 Q798 395 726 435 Q661 472 592 480 Q587 481 587 486 L587 558 L890 732 Z "/>
<glyph glyph-name="uniE04A" unicode="" horiz-adv-x="1006" d="M587 649 L890 824 L890 782 L587 606 L587 649 Z M890 732 L890 681 L623 528 Q706 514 781 465 Q844 425 892 366 Q985 249 985 114 Q985 100 984 84 Q982 69 976 53 L1009 53 L1009 0 L989 0 L967 31 L964 32 Q941 0 901 0 L693 0 Q693 -115 627 -176 Q561 -239 441 -239 L321 -239 Q208 -239 143 -183 Q69 -122 69 -2 L69 151 L99 175 L127 175 L127 -3 Q127 -90 164 -130 Q197 -166 282 -182 Q306 -186 382 -186 Q458 -186 481 -182 Q555 -168 590 -133 Q635 -89 635 0 L550 0 L527 28 L527 53 L878 53 Q902 53 913.5 64.5 Q925 76 927 103 Q927 110 927 119 Q927 229 849 329 Q798 395 726 435 Q661 472 592 480 Q587 481 587 486 L587 558 L890 732 Z "/>
<glyph glyph-name="uniE04B" unicode="" horiz-adv-x="1040" d="M587 649 L890 824 L890 782 L587 606 L587 649 Z M890 732 L890 681 L623 528 Q706 514 781 465 Q844 425 892 366 Q985 249 985 114 Q985 99 984 84 Q981 55 966 33 Q942 0 901 0 L693 0 Q693 -115 627 -176 Q561 -239 441 -239 L321 -239 Q208 -239 143 -183 Q69 -122 69 -2 L69 151 L99 175 L127 175 L127 -3 Q127 -90 164 -130 Q197 -166 282 -182 Q306 -186 382 -186 Q458 -186 481 -182 Q555 -168 590 -133 Q635 -89 635 0 L550 0 L527 28 L527 53 L878 53 Q902 53 913.5 64.5 Q925 76 927 103 Q927 110 927 119 Q927 229 849 329 Q798 395 726 435 Q661 472 592 480 Q587 481 587 486 L587 558 L890 732 Z M329 -298 Q345 -298 356 -309 Q367 -320 367 -336 Q367 -351 356 -362 Q345 -373 329 -373 Q313 -373 302 -362 Q291 -351 291 -336 Q291 -320 302 -309 Q313 -298 329 -298 Z M428 -298 Q443 -298 454 -309 Q465 -320 465 -336 Q465 -351 454 -362 Q443 -373 428 -373 Q412 -373 401 -362 Q390 -351 390 -336 Q390 -320 401 -309 Q412 -298 428 -298 Z "/>
<glyph glyph-name="uniE04C" unicode="" horiz-adv-x="1006" d="M587 649 L890 824 L890 782 L587 606 L587 649 Z M890 732 L890 681 L623 528 Q706 514 781 465 Q844 425 892 366 Q985 249 985 114 Q985 100 984 84 Q982 69 976 53 L1009 53 L1009 0 L989 0 L967 31 L964 32 Q941 0 901 0 L693 0 Q693 -115 627 -176 Q561 -239 441 -239 L321 -239 Q208 -239 143 -183 Q69 -122 69 -2 L69 151 L99 175 L127 175 L127 -3 Q127 -90 164 -130 Q197 -166 282 -182 Q306 -186 382 -186 Q458 -186 481 -182 Q555 -168 590 -133 Q635 -89 635 0 L550 0 L527 28 L527 53 L878 53 Q902 53 913.5 64.5 Q925 76 927 103 Q927 110 927 119 Q927 229 849 329 Q798 395 726 435 Q661 472 592 480 Q587 481 587 486 L587 558 L890 732 Z M329 -298 Q345 -298 356 -309 Q367 -320 367 -336 Q367 -351 356 -362 Q345 -373 329 -373 Q313 -373 302 -362 Q291 -351 291 -336 Q291 -320 302 -309 Q313 -298 329 -298 Z M428 -298 Q443 -298 454 -309 Q465 -320 465 -336 Q465 -351 454 -362 Q443 -373 428 -373 Q412 -373 401 -362 Q390 -351 390 -336 Q390 -320 401 -309 Q412 -298 428 -298 Z "/>
<glyph glyph-name="uniE04D" unicode="" horiz-adv-x="1045" d="M591 649 L895 824 L895 782 L591 606 L591 649 Z M895 732 L895 681 L627 528 Q711 514 786 465 Q849 425 897 366 Q990 249 990 114 Q990 99 989 84 Q986 55 971 33 Q947 0 906 0 L697 0 Q697 -115 632 -176 Q566 -239 445 -239 L326 -239 Q213 -239 148 -183 Q74 -122 74 -2 L74 151 L104 175 L132 175 L132 -3 Q132 -90 169 -130 Q202 -166 287 -182 Q310 -186 386 -186 Q462 -186 485 -182 Q559 -168 594 -133 Q639 -89 639 0 L554 0 L531 28 L531 53 L883 53 Q908 53 919.5 64.5 Q931 76 933 103 Q933 110 933 119 Q933 229 855 329 Q803 395 731 435 Q665 472 596 480 Q591 481 591 486 L591 558 L895 732 Z M157 472 Q163 473 168 473 Q192 473 217 464 L217 434 Q197 441 179 441 Q172 441 165 440 Q146 436 136 424 Q123 408 123 383 Q123 360 138 342 Q157 322 185 322 L249 322 L249 310 L233 290 L69 290 L69 322 L112 322 Q89 350 89 393 Q89 424 106 445 Q125 469 157 472 Z "/>
<glyph glyph-name="uniE04E" unicode="" horiz-adv-x="1010" d="M591 649 L895 824 L895 782 L591 606 L591 649 Z M895 732 L895 681 L627 528 Q711 514 786 465 Q849 425 897 366 Q990 249 990 114 Q990 100 989 84 Q987 69 981 53 L1014 53 L1014 0 L994 0 L972 31 L969 32 Q946 0 906 0 L697 0 Q697 -115 632 -176 Q566 -239 445 -239 L326 -239 Q213 -239 148 -183 Q74 -122 74 -2 L74 151 L104 175 L132 175 L132 -3 Q132 -90 169 -130 Q202 -166 287 -182 Q310 -186 386 -186 Q462 -186 485 -182 Q559 -168 594 -133 Q639 -89 639 0 L554 0 L531 28 L531 53 L883 53 Q908 53 919.5 64.5 Q931 76 933 103 Q933 110 933 119 Q933 229 855 329 Q803 395 731 435 Q665 472 596 480 Q591 481 591 486 L591 558 L895 732 Z M157 472 Q163 473 168 473 Q192 473 217 464 L217 434 Q197 441 179 441 Q172 441 165 440 Q146 436 136 424 Q123 408 123 383 Q123 360 138 342 Q157 322 185 322 L249 322 L249 310 L233 290 L69 290 L69 322 L112 322 Q89 350 89 393 Q89 424 106 445 Q125 469 157 472 Z "/>
<glyph glyph-name="uniE051" unicode="" horiz-adv-x="1006" d="M157 472 Q163 473 168 473 Q192 473 217 464 L217 434 Q197 441 179 441 Q172 441 165 440 Q146 436 136 424 Q123 408 123 383 Q123 360 138 342 Q157 322 185 322 L249 322 L249 310 L233 290 L69 290 L69 322 L112 322 Q89 350 89 393 Q89 424 106 445 Q125 469 157 472 Z M937 460 L937 83 Q937 49 911 24 Q888 0 856 0 L716 0 Q716 -115 651 -176 Q585 -239 465 -239 L344 -239 Q232 -239 166 -183 Q93 -122 93 -2 L93 150 L122 174 L150 174 L150 -3 Q150 -90 187 -130 Q220 -166 305 -182 Q329 -186 405 -186 Q481 -186 505 -182 Q578 -168 614 -133 Q659 -89 659 0 L573 0 L551 28 L551 53 L833 53 Q880 53 880 100 L880 460 L937 460 Z M793 -128 Q809 -128 820 -139 Q831 -150 831 -166 Q831 -181 820 -192 Q809 -203 793 -203 Q777 -203 766 -192 Q755 -181 755 -166 Q755 -150 766 -139 Q777 -128 793 -128 Z M891 -128 Q906 -128 917 -139 Q928 -150 928 -166 Q928 -181 917 -192 Q906 -203 891 -203 Q875 -203 864 -192 Q853 -181 853 -166 Q853 -150 864 -139 Q875 -128 891 -128 Z "/>
<glyph glyph-name="uniE052" unicode="" horiz-adv-x="983" d="M157 473 Q162 473 168 473 Q192 473 217 464 L217 434 Q197 441 179 441 Q172 441 165 440 Q146 436 136 424 Q123 408 123 383 Q123 360 138 342 Q157 322 185 322 L249 322 L249 310 L233 290 L69 290 L69 322 L112 322 Q89 350 89 393 Q89 424 106 445 Q125 469 157 473 Z M938 460 L938 83 Q938 69 932 53 L986 53 L986 0 L944 0 L921 31 L919 31 Q893 0 857 0 L716 0 Q716 -115 651 -176 Q585 -239 464 -239 L344 -239 Q232 -239 166 -183 Q92 -122 92 -2 L92 151 L122 174 L150 174 L150 -3 Q150 -90 187 -130 Q220 -166 305 -182 Q329 -186 405 -186 Q481 -186 504 -182 Q578 -168 613 -133 Q659 -89 659 0 L573 0 L550 28 L550 53 L833 53 Q880 53 880 100 L880 460 L938 460 Z M802 -128 Q818 -128 829 -139 Q840 -150 840 -166 Q840 -181 829 -192 Q818 -203 802 -203 Q786 -203 775 -192 Q764 -181 764 -166 Q764 -150 775 -139 Q786 -128 802 -128 Z M900 -128 Q915 -128 926 -139 Q937 -150 937 -166 Q937 -181 926 -192 Q915 -203 900 -203 Q884 -203 873 -192 Q862 -181 862 -166 Q862 -150 873 -139 Q884 -128 900 -128 Z "/>
<glyph glyph-name="uniE053" unicode="" horiz-adv-x="689" d="M659 674 L659 616 Q598 616 547 584 Q476 539 421 432 Q372 528 311 573 Q250 618 176 618 Q164 618 150 616 L150 24 L120 0 L92 0 L92 674 L165 674 Q253 674 305 643 Q332 627 356 601 Q380 575 421 518 Q460 574 483.5 599 Q507 624 533 640 Q584 671 659 674 Z "/>
<glyph glyph-name="uniE054" unicode="" horiz-adv-x="632" d="M484 585 L484 520 L63 53 L608 53 L608 29 L584 0 L101 0 Q70 0 55 6 Q33 15 25 41 Q22 52 22 63 Q22 92 50 122 L484 585 Z "/>
<glyph glyph-name="uniE060" unicode="" horiz-adv-x="1058" d="M710 1082 L710 888 L692 873 L674 873 L674 1082 L710 1082 Z M804 835 L804 730 Q804 711 792 698 Q780 685 758 685 L715 685 L705 696 L704 696 Q701 693 697 690 Q689 685 680 685 L627 685 Q608 685 594 697 Q581 710 581 730 L581 795 L599 810 L616 810 L616 733 Q616 727 619 723 Q624 716 633 716 L658 716 Q666 716 670 721 Q674 725 674 732 L674 810 L710 810 L710 716 L751 716 Q759 716 764 722 Q769 726 769 733 L769 835 L804 835 Z M984 613 L984 83 Q984 49 958 24 Q935 0 903 0 L731 0 L709 31 L706 31 Q695 18 681 10 Q663 0 644 0 L490 0 Q448 0 422 35 Q349 -11 276 -12 Q193 -13 134 35 Q55 101 55 223 Q55 299 87 360 Q114 411 159 443 Q219 487 295 486 Q352 486 409 459 L438 483 L467 483 L467 100 Q467 79 479 67 Q493 53 513 53 L621 53 Q645 53 657 67 Q668 79 668 100 L668 613 L725 613 L725 83 Q725 69 719 53 L879 53 Q901 53 913 64 Q926 77 926 100 L926 613 L984 613 Z M302 432 Q235 431 185 389 Q115 329 114 223 Q113 136 170 84 Q215 41 280 42 Q338 43 409 82 L409 406 Q355 433 302 432 Z "/>
<glyph glyph-name="&amp;#x221e;" unicode="∞" horiz-adv-x="701" d="M337 789 Q400 789 435 741 Q457 710 457 672 Q457 668 457 664 Q455 629 434 600 Q416 575 372 542 Q470 485 527 427 Q631 319 635 167 Q635 160 635 157 Q635 28 551 -53 Q461 -139 312 -144 L293 -120 L293 -99 Q432 -97 515 -14 Q585 56 582 167 Q579 304 488 400 Q435 456 334 516 Q204 421 161 370 Q101 300 100 217 Q100 153 127 107 Q158 56 212 33 L212 12 L197 -8 Q127 18 87 76 Q46 134 48 217 Q50 310 109 386 Q160 451 296 541 Q251 579 238 599 Q219 629 217 665 Q216 669 216 673 Q216 717 247 751 Q282 789 337 789 Z M337 743 Q307 743 286.5 721 Q266 699 266 667 Q266 663 267 661 Q269 635 283 616.5 Q297 598 337 567 Q377 596 391 615 Q405 634 407 661 Q407 663 407 667 Q407 699 387 721 Q367 743 337 743 Z M347 391 Q396 391 426 366 Q459 336 459 282 L459 129 Q459 59 428 22 Q400 -11 350 -21 Q329 -25 308 -25 Q292 -25 277 -23 L261 -3 L261 19 Q280 15 300 15 Q309 15 319 16 Q377 21 401 61 Q414 82 414 109 Q388 97 354 97 Q349 97 344 97 Q292 100 257 129 Q209 170 209 249 Q209 323 253 360 Q288 391 347 391 Z M347 345 Q313 345 289 325 Q260 298 260 247 Q260 192 294 163 Q318 142 353 141 Q381 140 412 153 L412 280 Q412 309 395 326 Q377 345 347 345 Z "/>
<glyph glyph-name="&amp;#xea26;" unicode="" horiz-adv-x="701" d="M337 789 Q400 789 435 741 Q457 710 457 672 Q457 668 457 664 Q455 629 434 600 Q416 575 372 542 Q470 485 527 427 Q631 319 635 167 Q635 160 635 157 Q635 28 551 -53 Q461 -139 312 -144 L293 -120 L293 -99 Q432 -97 515 -14 Q585 56 582 167 Q579 304 488 400 Q435 456 334 516 Q204 421 161 370 Q101 300 100 217 Q100 153 127 107 Q158 56 212 33 L212 12 L197 -8 Q127 18 87 76 Q46 134 48 217 Q50 310 109 386 Q160 451 296 541 Q251 579 238 599 Q219 629 217 665 Q216 669 216 673 Q216 717 247 751 Q282 789 337 789 Z M337 743 Q307 743 286.5 721 Q266 699 266 667 Q266 663 267 661 Q269 635 283 616.5 Q297 598 337 567 Q377 596 391 615 Q405 634 407 661 Q407 663 407 667 Q407 699 387 721 Q367 743 337 743 Z M347 391 Q396 391 426 366 Q459 336 459 282 L459 129 Q459 59 428 22 Q400 -11 350 -21 Q329 -25 308 -25 Q292 -25 277 -23 L261 -3 L261 19 Q280 15 300 15 Q309 15 319 16 Q377 21 401 61 Q414 82 414 109 Q388 97 354 97 Q349 97 344 97 Q292 100 257 129 Q209 170 209 249 Q209 323 253 360 Q288 391 347 391 Z M347 345 Q313 345 289 325 Q260 298 260 247 Q260 192 294 163 Q318 142 353 141 Q381 140 412 153 L412 280 Q412 309 395 326 Q377 345 347 345 Z "/>
<glyph glyph-name="uniFB51" unicode="ﭑ" horiz-adv-x="174" d="M237 891 Q240 881 240 871 Q240 853 230 835.5 Q220 818 204 809 Q178 793 137 793 Q106 793 73 802 Q62 805 42 812 Q4 824 -6 824 Q-32 824 -64 797 L-81 810 Q-48 863 -6 865 Q14 866 52 853 Q78 894 106 914 Q125 927 146 932 Q159 935 170 935 Q195 935 212.5 923 Q230 911 237 891 Z M81 841 Q126 828 153 828 Q165 828 174 830 Q209 840 209 868 Q209 874 207 880 Q200 902 171 902 Q164 902 157 900 Q140 896 124 885 Q102 871 81 841 Z M128 716 L128 100 Q128 78 139 66 Q151 53 174 53 L179 53 L179 0 L151 0 Q119 0 96 24 Q70 49 70 83 L70 716 L128 716 Z "/>
<glyph glyph-name="uniFB57" unicode="ﭗ" horiz-adv-x="915" d="M870 460 L870 83 Q870 69 864 53 L919 53 L919 0 L876 0 L853 31 L851 31 Q824 0 788 0 L212 0 Q156 0 114 42 Q69 88 69 153 L69 364 L99 388 L127 388 L127 158 Q127 114 153 87 Q183 53 236 53 L765 53 Q788 53 801 66 Q812 78 812 100 L812 460 L870 460 Z M420 -128 Q436 -128 447 -139 Q458 -150 458 -166 Q458 -181 447 -192 Q436 -203 420 -203 Q404 -203 393 -192 Q382 -181 382 -166 Q382 -150 393 -139 Q404 -128 420 -128 Z M519 -128 Q534 -128 545 -139 Q556 -150 556 -166 Q556 -181 545 -192 Q534 -203 519 -203 Q503 -203 492 -192 Q481 -181 481 -166 Q481 -150 492 -139 Q503 -128 519 -128 Z M470 -206 Q485 -206 496 -217 Q507 -228 507 -244 Q507 -259 496 -270 Q485 -281 470 -281 Q454 -281 443 -270 Q432 -259 432 -244 Q432 -228 443 -217 Q454 -206 470 -206 Z "/>
<glyph glyph-name="uniFB58" unicode="ﭘ" horiz-adv-x="305" d="M235 460 L235 83 Q235 49 209 24 Q186 0 154 0 L-4 0 L-4 53 L130 53 Q152 53 164 65 Q177 77 177 100 L177 460 L235 460 Z M99 -203 Q83 -203 72 -192 Q61 -181 61 -166 Q61 -150 72 -139 Q83 -128 99 -128 Q114 -128 125 -139 Q136 -150 136 -166 Q136 -181 125 -192 Q114 -203 99 -203 Z M198 -203 Q182 -203 171 -192 Q160 -181 160 -166 Q160 -150 171 -139 Q182 -128 198 -128 Q213 -128 224 -139 Q235 -150 235 -166 Q235 -181 224 -192 Q213 -203 198 -203 Z M149 -281 Q133 -281 122 -270 Q111 -259 111 -244 Q111 -228 122 -217 Q133 -206 149 -206 Q164 -206 175 -217 Q186 -228 186 -244 Q186 -259 175 -270 Q164 -281 149 -281 Z "/>
<glyph glyph-name="uniFB59" unicode="ﭙ" horiz-adv-x="281" d="M235 460 L235 83 Q235 69 229 53 L284 53 L284 0 L241 0 L218 31 L216 31 Q190 0 154 0 L-4 0 L-4 53 L130 53 Q154 53 167 67 Q177 79 177 100 L177 460 L235 460 Z M99 -203 Q83 -203 72 -192 Q61 -181 61 -166 Q61 -150 72 -139 Q83 -128 99 -128 Q114 -128 125 -139 Q136 -150 136 -166 Q136 -181 125 -192 Q114 -203 99 -203 Z M198 -203 Q182 -203 171 -192 Q160 -181 160 -166 Q160 -150 171 -139 Q182 -128 198 -128 Q213 -128 224 -139 Q235 -150 235 -166 Q235 -181 224 -192 Q213 -203 198 -203 Z M149 -281 Q133 -281 122 -270 Q111 -259 111 -244 Q111 -228 122 -217 Q133 -206 149 -206 Q164 -206 175 -217 Q186 -228 186 -244 Q186 -259 175 -270 Q164 -281 149 -281 Z "/>
<glyph glyph-name="uniFB67" unicode="ﭧ" horiz-adv-x="915" d="M416 576 L415 480 Q437 516 469 536 Q499 556 532 557 Q567 558 588 538 Q611 515 611 473 L611 445 Q611 425 600 410 Q584 388 554 388 L361 388 L361 420 L387 420 L387 576 L416 576 Z M531 522 Q501 521 467 493 Q433 463 415 420 L552 420 Q576 420 576 444 L576 469 Q576 500 560 513 Q549 522 531 522 Z M870 460 L870 83 Q870 69 864 53 L919 53 L919 0 L876 0 L853 31 L851 31 Q824 0 788 0 L212 0 Q156 0 114 42 Q69 88 69 153 L69 364 L99 388 L127 388 L127 158 Q127 114 153 87 Q183 53 236 53 L765 53 Q788 53 801 66 Q812 78 812 100 L812 460 L870 460 Z "/>
<glyph glyph-name="uniFB68" unicode="ﭨ" horiz-adv-x="304" d="M53 794 L53 698 Q76 734 108 754 Q137 774 170 775 Q205 776 226 756 Q249 733 249 691 L249 663 Q249 643 239 628 Q223 606 192 606 L-1 606 L-1 638 L25 638 L25 794 L53 794 Z M169 740 Q140 739 105 711 Q71 681 53 638 L191 638 Q214 638 214 662 L214 687 Q214 718 198 731 Q187 740 169 740 Z M235 460 L235 83 Q235 49 209 24 Q186 0 154 0 L-4 0 L-4 53 L130 53 Q152 53 164 65 Q177 77 177 100 L177 460 L235 460 Z "/>
<glyph glyph-name="uniFB69" unicode="ﭩ" horiz-adv-x="281" d="M53 794 L53 698 Q76 734 108 754 Q137 774 170 775 Q205 776 226 756 Q249 733 249 691 L249 663 Q249 643 239 628 Q223 606 192 606 L-1 606 L-1 638 L25 638 L25 794 L53 794 Z M169 740 Q140 739 105 711 Q71 681 53 638 L191 638 Q214 638 214 662 L214 687 Q214 718 198 731 Q187 740 169 740 Z M235 460 L235 83 Q235 69 229 53 L284 53 L284 0 L241 0 L218 31 L216 31 Q190 0 154 0 L-4 0 L-4 53 L130 53 Q154 53 167 67 Q177 79 177 100 L177 460 L235 460 Z "/>
<glyph glyph-name="uniFB6B" unicode="ﭫ" horiz-adv-x="938" d="M716 758 Q731 758 742 747 Q753 736 753 721 Q753 705 742 694 Q731 683 716 683 Q700 683 689 694 Q678 705 678 721 Q678 736 689 747 Q700 758 716 758 Z M666 679 Q682 679 693 668 Q704 657 704 642 Q704 626 693 615 Q682 604 666 604 Q650 604 639 615 Q628 626 628 642 Q628 657 639 668 Q650 679 666 679 Z M765 679 Q780 679 791 668 Q802 657 802 642 Q802 626 791 615 Q780 604 765 604 Q749 604 738 615 Q727 626 727 642 Q727 657 738 668 Q749 679 765 679 Z M707 472 Q792 472 848 420 Q917 355 917 237 Q917 129 841 53 L942 53 L942 0 L803 0 Q727 0 708 5 L705 5 Q686 0 610 0 L212 0 Q156 0 114 42 Q69 88 69 153 L69 364 L99 388 L127 388 L127 158 Q127 115 153 87 Q183 53 236 53 L572 53 Q497 128 497 237 Q497 351 561 415 Q618 472 707 472 Z M707 419 Q627 419 586 359 Q555 313 555 238 Q555 160 599 107 Q641 57 707 53 Q782 57 825 122 Q858 172 859 238 Q860 329 813 377 Q774 419 707 419 Z "/>
<glyph glyph-name="uniFB6C" unicode="ﭬ" horiz-adv-x="618" d="M386 758 Q401 758 412 747 Q423 736 423 721 Q423 705 412 694 Q401 683 386 683 Q370 683 359 694 Q348 705 348 721 Q348 736 359 747 Q370 758 386 758 Z M336 679 Q352 679 363 668 Q374 657 374 642 Q374 626 363 615 Q352 604 336 604 Q320 604 309 615 Q298 626 298 642 Q298 657 309 668 Q320 679 336 679 Z M435 679 Q450 679 461 668 Q472 657 472 642 Q472 626 461 615 Q450 604 435 604 Q419 604 408 615 Q397 626 397 642 Q397 657 408 668 Q419 679 435 679 Z M376 472 Q458 472 506 431 Q562 383 562 293 L562 83 Q562 49 536 24 Q513 0 481 0 L-4 0 L-4 53 L219 53 Q183 87 166 134 Q150 181 150 240 Q150 346 208 408 Q270 472 376 472 Z M377 419 Q290 419 249 367 Q208 316 208 226 Q208 149 248 102 Q289 53 360 53 L457 53 Q504 53 504 100 L504 292 Q504 352 471 385 Q437 419 377 419 Z "/>
<glyph glyph-name="uniFB6D" unicode="ﭭ" horiz-adv-x="593" d="M370 758 Q385 758 396 747 Q407 736 407 721 Q407 705 396 694 Q385 683 370 683 Q354 683 343 694 Q332 705 332 721 Q332 736 343 747 Q354 758 370 758 Z M321 679 Q336 679 347 668 Q358 657 358 642 Q358 626 347 615 Q336 604 321 604 Q305 604 294 615 Q283 626 283 642 Q283 657 294 668 Q305 679 321 679 Z M420 679 Q436 679 447 668 Q458 657 458 642 Q458 626 447 615 Q436 604 420 604 Q404 604 393 615 Q382 626 382 642 Q382 657 393 668 Q404 679 420 679 Z M361 472 Q446 472 502 420 Q571 355 571 237 Q571 129 495 53 L596 53 L596 0 L457 0 Q381 0 362 5 L360 5 Q340 0 264 0 L-4 0 L-4 53 L226 53 Q152 128 152 237 Q152 351 216 415 Q272 472 361 472 Z M361 419 Q281 419 242 360 Q210 313 210 238 Q210 160 254 107 Q295 57 361 53 Q436 57 479 122 Q512 172 513 238 Q515 327 469 376 Q429 419 361 419 Z "/>
<glyph glyph-name="uniFB7B" unicode="ﭻ" horiz-adv-x="616" d="M333 473 Q452 475 520 395 Q571 336 571 220 L571 83 Q571 69 565 53 L619 53 L619 0 L576 0 L554 31 L552 31 Q545 22 533 14 Q512 0 490 0 L284 0 Q201 0 155 -42 Q113 -81 113 -151 Q113 -231 160 -277 Q209 -327 290 -327 Q301 -327 313 -325 L313 -341 L287 -373 Q280 -374 272 -374 Q185 -374 126 -324 Q55 -264 55 -156 Q55 -57 117 -3 Q180 53 298 53 L466 53 Q513 53 513 100 L513 232 Q513 320 472 366 Q424 421 331 422 Q261 423 179 399 L179 445 Q262 472 333 473 Z M296 -128 Q311 -128 322 -139 Q333 -150 333 -166 Q333 -181 322 -192 Q311 -203 296 -203 Q280 -203 269 -192 Q258 -181 258 -166 Q258 -150 269 -139 Q280 -128 296 -128 Z M395 -128 Q410 -128 421 -139 Q432 -150 432 -166 Q432 -181 421 -192 Q410 -203 395 -203 Q379 -203 368 -192 Q357 -181 357 -166 Q357 -150 368 -139 Q379 -128 395 -128 Z M345 -206 Q361 -206 372 -217 Q383 -228 383 -243 Q383 -259 372 -270 Q361 -281 345 -281 Q330 -281 319 -270 Q308 -259 308 -243 Q308 -228 319 -217 Q330 -206 345 -206 Z "/>
<glyph glyph-name="uniFB7C" unicode="ﭼ" horiz-adv-x="577" d="M283 473 Q403 475 471 395 Q495 368 508.5 329.5 Q522 291 522 251 L522 83 Q522 46 493 20 Q469 0 441 0 L-4 0 L-4 53 L417 53 Q464 53 464 100 L464 232 Q464 320 423 366 Q374 421 282 422 Q211 423 129 399 L129 445 Q213 472 283 473 Z M199 -128 Q214 -128 225 -139 Q236 -150 236 -166 Q236 -181 225 -192 Q214 -203 199 -203 Q183 -203 172 -192 Q161 -181 161 -166 Q161 -150 172 -139 Q183 -128 199 -128 Z M298 -128 Q314 -128 325 -139 Q336 -150 336 -166 Q336 -181 325 -192 Q314 -203 298 -203 Q282 -203 271 -192 Q260 -181 260 -166 Q260 -150 271 -139 Q282 -128 298 -128 Z M249 -206 Q264 -206 275 -217 Q286 -228 286 -244 Q286 -259 275 -270 Q264 -281 249 -281 Q233 -281 222 -270 Q211 -259 211 -244 Q211 -228 222 -217 Q233 -206 249 -206 Z "/>
<glyph glyph-name="uniFB7D" unicode="ﭽ" horiz-adv-x="551" d="M283 473 Q403 475 471 395 Q495 368 508.5 329.5 Q522 291 522 251 L522 83 Q522 69 516 53 L554 53 L554 0 L528 0 L505 31 L503 31 Q477 0 441 0 L-4 0 L-4 53 L417 53 Q464 53 464 100 L464 232 Q464 320 423 366 Q374 421 282 422 Q211 423 129 399 L129 445 Q213 472 283 473 Z M199 -128 Q214 -128 225 -139 Q236 -150 236 -166 Q236 -181 225 -192 Q214 -203 199 -203 Q183 -203 172 -192 Q161 -181 161 -166 Q161 -150 172 -139 Q183 -128 199 -128 Z M298 -128 Q314 -128 325 -139 Q336 -150 336 -166 Q336 -181 325 -192 Q314 -203 298 -203 Q282 -203 271 -192 Q260 -181 260 -166 Q260 -150 271 -139 Q282 -128 298 -128 Z M249 -206 Q264 -206 275 -217 Q286 -228 286 -244 Q286 -259 275 -270 Q264 -281 249 -281 Q233 -281 222 -270 Q211 -259 211 -244 Q211 -228 222 -217 Q233 -206 249 -206 Z "/>
<glyph glyph-name="uniFB89" unicode="ﮉ" horiz-adv-x="494" d="M169 794 L167 698 Q190 734 222 754 Q252 774 285 775 Q320 776 341 756 Q364 733 364 691 L364 663 Q364 643 353 628 Q337 606 307 606 L114 606 L114 638 L140 638 L140 794 L169 794 Z M283 740 Q254 739 219 711 Q186 681 167 638 L305 638 Q329 638 329 662 L329 687 Q329 718 313 731 Q302 740 283 740 Z M254 471 Q326 464 377 420 Q450 359 450 259 L450 83 Q450 68 444 53 L498 53 L498 0 L455 0 L433 31 L431 31 Q428 28 424 24 Q401 0 368 0 L39 0 L39 53 L345 53 Q392 53 392 100 L392 247 Q392 320 347 371 Q296 426 192 426 Q184 426 174 425 Q157 425 140 422 L140 466 Q180 473 220 473 Q238 473 254 471 Z "/>
<glyph glyph-name="uniFB8B" unicode="ﮋ" horiz-adv-x="362" d="M240 758 Q255 758 266 747 Q277 736 277 721 Q277 705 266 694 Q255 683 240 683 Q224 683 213 694 Q202 705 202 721 Q202 736 213 747 Q224 758 240 758 Z M190 679 Q205 679 216.5 668 Q228 657 228 642 Q228 626 216.5 615 Q205 604 190 604 Q174 604 163 615 Q152 626 152 642 Q152 657 163 668 Q174 679 190 679 Z M288 679 Q304 679 315 668 Q326 657 326 642 Q326 626 315 615 Q304 604 288 604 Q273 604 262 615 Q251 626 251 642 Q251 657 262 668 Q273 679 288 679 Z M315 460 L315 53 L366 53 L366 0 L315 0 Q314 -101 263 -160 Q217 -215 134 -231 Q100 -238 57 -238 Q49 -238 39 -238 Q31 -238 17 -237 L-12 -201 L-12 -184 Q15 -186 40 -186 Q85 -186 122 -178 Q188 -166 220 -128 Q257 -86 257 -6 L257 460 L315 460 Z "/>
<glyph glyph-name="uniFB8D" unicode="ﮍ" horiz-adv-x="362" d="M131 792 L131 696 Q154 733 186 752 Q215 772 248 773 Q283 774 304 754 Q327 731 327 689 L327 661 Q327 641 316 626 Q301 604 270 604 L77 604 L77 636 L103 636 L103 792 L131 792 Z M247 738 Q217 737 183 709 Q149 680 131 636 L268 636 Q292 636 292 660 L292 685 Q292 716 276 729 Q265 738 247 738 Z M315 460 L315 53 L366 53 L366 0 L315 0 Q314 -101 263 -160 Q217 -215 134 -231 Q100 -238 57 -238 Q49 -238 39 -238 Q31 -238 17 -237 L-12 -201 L-12 -184 Q15 -186 40 -186 Q85 -186 122 -178 Q188 -166 220 -128 Q257 -86 257 -6 L257 460 L315 460 Z "/>
<glyph glyph-name="uniFB8F" unicode="ﮏ" horiz-adv-x="891" d="M776 732 L776 681 L508 528 Q591 514 666 465 Q730 425 777 366 Q870 249 870 114 Q870 99 869 84 Q867 67 862 53 L894 53 L894 0 L874 0 L852 31 L850 31 Q826 0 787 0 L212 0 Q156 0 114 42 Q69 88 69 153 L69 364 L99 388 L127 388 L127 158 Q127 115 153 87 Q183 53 236 53 L764 53 Q790 53 802 67 Q811 78 813 103 Q813 110 813 119 Q813 229 735 329 Q684 395 612 435 Q546 472 477 480 Q472 481 472 486 L472 558 L776 732 Z "/>
<glyph glyph-name="uniFB90" unicode="ﮐ" horiz-adv-x="572" d="M421 732 L421 681 L154 528 Q237 514 312 465 Q375 425 423 366 Q516 249 516 114 Q516 99 515 84 Q512 55 497 33 Q473 0 432 0 L-4 0 L-4 53 L409 53 Q434 53 445.5 64.5 Q457 76 459 103 Q459 110 459 119 Q459 229 381 329 Q330 395 257 435 Q192 472 123 480 Q118 481 118 486 L118 558 L421 732 Z "/>
<glyph glyph-name="uniFB91" unicode="ﮑ" horiz-adv-x="537" d="M421 732 L421 681 L154 528 Q237 514 312 465 Q375 425 422 366 Q516 249 516 114 Q516 99 515 84 Q513 67 507 53 L540 53 L540 0 L520 0 L498 31 L495 31 Q471 0 432 0 L-4 0 L-4 53 L409 53 Q433 53 444.5 64.5 Q456 76 458 103 Q458 110 458 119 Q458 229 380 329 Q329 395 257 435 Q192 472 123 480 Q118 481 118 486 L118 558 L421 732 Z "/>
<glyph glyph-name="uniFB93" unicode="ﮓ" horiz-adv-x="891" d="M472 649 L776 824 L776 782 L472 606 L472 649 Z M776 732 L776 681 L508 528 Q591 514 666 465 Q730 425 777 366 Q870 249 870 114 Q870 99 869 84 Q867 67 862 53 L894 53 L894 0 L874 0 L852 31 L850 31 Q826 0 787 0 L212 0 Q156 0 114 42 Q69 88 69 153 L69 364 L99 388 L127 388 L127 158 Q127 115 153 87 Q183 53 236 53 L764 53 Q790 53 802 67 Q811 78 813 103 Q813 110 813 119 Q813 229 735 329 Q684 395 612 435 Q546 472 477 480 Q472 481 472 486 L472 558 L776 732 Z "/>
<glyph glyph-name="uniFB94" unicode="ﮔ" horiz-adv-x="590" d="M118 649 L421 824 L421 782 L118 606 L118 649 Z M421 732 L421 681 L154 528 Q237 514 312 465 Q375 425 423 366 Q516 249 516 114 Q516 99 515 84 Q512 55 497 33 Q473 0 432 0 L-4 0 L-4 53 L409 53 Q434 53 445.5 64.5 Q457 76 459 103 Q459 110 459 119 Q459 229 381 329 Q330 395 257 435 Q192 472 123 480 Q118 481 118 486 L118 558 L421 732 Z "/>
<glyph glyph-name="uniFB95" unicode="ﮕ" horiz-adv-x="555" d="M118 649 L421 824 L421 782 L118 606 L118 649 Z M421 732 L421 681 L154 528 Q237 514 312 465 Q375 425 422 366 Q516 249 516 114 Q516 99 515 84 Q513 67 507 53 L540 53 L540 0 L520 0 L498 31 L495 31 Q471 0 432 0 L-4 0 L-4 53 L409 53 Q433 53 444.5 64.5 Q456 76 458 103 Q458 110 458 119 Q458 229 380 329 Q329 395 257 435 Q192 472 123 480 Q118 481 118 486 L118 558 L421 732 Z "/>
<glyph glyph-name="uniFB9F" unicode="ﮟ" horiz-adv-x="740" d="M693 460 L693 53 L743 53 L743 0 L693 0 Q693 -115 627 -176 Q561 -239 441 -239 L321 -239 Q209 -239 143 -183 Q69 -122 69 -2 L69 229 L99 253 L127 253 L127 -3 Q127 -90 164 -130 Q197 -166 282 -182 Q306 -186 382 -186 Q457 -186 481 -182 Q554 -168 590 -133 Q635 -89 635 -3 L635 460 L693 460 Z "/>
<glyph glyph-name="uniFBA5" unicode="ﮥ" horiz-adv-x="510" d="M299 736 Q304 737 310 737 Q333 737 358 728 L358 698 Q338 705 321 705 Q313 705 307 704 Q287 700 277 688 Q264 672 264 647 Q264 624 279 606 Q298 586 327 586 L391 586 L391 574 L374 554 L211 554 L211 586 L254 586 Q230 614 230 657 Q230 688 248 709 Q267 733 299 736 Z M466 479 L466 100 Q466 79 478 67 Q492 53 512 53 L513 53 L513 0 L489 0 Q447 0 421 35 Q348 -11 275 -12 Q192 -13 133 35 Q54 101 54 223 Q54 297 86 356 Q113 407 158 437 Q216 475 290 477 Q350 478 408 454 L437 479 L466 479 Z M301 426 Q233 425 184 384 Q114 324 113 223 Q112 137 164 86 Q210 41 279 42 Q337 43 408 82 L408 401 Q356 427 301 426 Z "/>
<glyph glyph-name="uniFBA7" unicode="ﮧ" horiz-adv-x="722" d="M680 460 L680 100 Q680 77 693 64 Q705 53 727 53 L731 53 L731 0 L703 0 Q671 0 648 24 Q622 49 622 83 L622 404 Q532 390 476 321 Q399 227 399 53 L399 0 L330 0 Q162 0 90 140 Q52 215 52 306 Q52 342 58 372 L114 372 Q111 344 111 317 Q111 226 144 162 Q200 53 341 53 Q341 256 444 366 Q533 460 673 460 L680 460 Z "/>
<glyph glyph-name="uniFBA8" unicode="ﮨ" horiz-adv-x="371" d="M303 460 L303 83 Q303 49 277 24 Q254 0 222 0 L160 0 Q109 -61 109 -108 Q109 -111 109 -114 Q110 -128 119 -136.5 Q128 -145 142 -145 L210 -145 L210 -196 L151 -196 Q114 -196 91.5 -174.5 Q69 -153 67 -116 Q67 -112 67 -110 Q67 -58 114 0 L-3 0 L-3 53 L199 53 Q220 53 232 65 Q245 77 245 100 L245 460 L303 460 Z "/>
<glyph glyph-name="uniFBA9" unicode="ﮩ" horiz-adv-x="477" d="M480 53 L481 0 L442 0 Q420 0 408 -12 Q395 -24 395 -47 L395 -348 L384 -348 Q224 -348 130 -227 Q56 -130 56 0 L-4 0 L-4 53 L113 53 L113 0 Q113 -110 174 -192 Q236 -276 337 -291 L337 -30 Q337 4 363 29 Q386 53 418 53 L480 53 Z "/>
<glyph glyph-name="uniFBAB" unicode="ﮫ" horiz-adv-x="767" d="M481 500 Q596 502 660 445 Q698 411 717 354 Q739 291 739 191 L739 83 Q739 69 733 53 L771 53 L771 0 L745 0 L722 31 L720 31 Q713 22 703 15 Q681 0 657 0 L423 0 Q362 0 342 4 L338 4 Q319 0 255 0 L79 0 L55 30 L55 53 L225 53 Q203 75 188 105 Q161 157 161 216 Q161 319 216 372 Q237 392 265 403 L265 450 Q316 474 378 488 Q431 499 481 500 Z M477 447 Q405 447 324 416 Q331 417 339 417 Q411 417 455 379 Q517 327 517 217 Q517 166 495 117 Q478 82 452 53 L634 53 Q656 53 668 65 Q681 77 681 100 L681 177 Q681 267 666 320 Q651 373 618 402 Q566 447 477 447 Z M337 371 Q282 371 251 336 Q214 295 214 213 Q214 171 231 136 Q264 67 338 58 Q409 67 444 132 Q464 170 464 213 Q464 296 424 337 Q392 371 337 371 Z "/>
<glyph glyph-name="uniFBAC" unicode="ﮬ" horiz-adv-x="773" d="M461 500 Q576 501 639 445 Q718 374 718 191 L718 83 Q718 49 692 24 Q669 0 637 0 L403 0 Q342 0 321 4 L318 4 Q299 0 235 0 L-4 0 L-4 53 L205 53 Q180 78 163 112 Q140 162 140 216 Q140 319 196 372 Q217 392 245 403 L245 450 Q347 499 461 500 Z M457 447 Q385 447 303 416 Q311 417 319 417 Q391 417 435 379 Q497 327 497 217 Q497 166 474 117 Q458 82 432 53 L613 53 Q635 53 647 65 Q660 77 660 100 L660 177 Q660 266 645 319.5 Q630 373 598 402 Q545 447 457 447 Z M317 371 Q262 371 230 336 Q193 295 193 213 Q193 165 216 126 Q250 66 318 58 Q387 67 422 129 Q444 168 444 213 Q444 296 404 337 Q372 371 317 371 Z "/>
<glyph glyph-name="uniFBAD" unicode="ﮭ" horiz-adv-x="747" d="M461 500 Q576 501 639 445 Q718 374 718 191 L718 83 Q718 69 712 53 L750 53 L750 0 L724 0 L701 31 L699 31 Q692 22 682 15 Q661 0 637 0 L403 0 Q342 0 321 4 L318 4 Q299 0 235 0 L-4 0 L-4 53 L205 53 Q183 75 167 105 Q140 157 140 216 Q140 319 196 372 Q217 392 245 403 L245 450 Q347 499 461 500 Z M457 447 Q385 447 303 416 Q311 417 319 417 Q391 417 435 379 Q497 327 497 217 Q497 166 474 117 Q458 82 432 53 L613 53 Q635 53 647 65 Q660 77 660 100 L660 177 Q660 266 645 319.5 Q630 373 598 402 Q545 447 457 447 Z M317 371 Q262 371 230 336 Q193 295 193 213 Q193 152 228 108 Q261 65 318 58 Q381 66 416 119 Q444 161 444 213 Q444 296 404 337 Q372 371 317 371 Z "/>
<glyph glyph-name="uniFBAF" unicode="ﮯ" horiz-adv-x="670" d="M808 53 L808 0 L222 0 Q184 0 157 -15 Q124 -35 124 -74 Q124 -100 139 -116 Q158 -138 197 -138 L660 -138 L660 -155 L631 -191 L197 -191 Q127 -191 93 -150 Q69 -120 69 -74 Q69 -12 116 23 Q157 53 222 53 L808 53 Z "/>
<glyph glyph-name="uniFBB1" unicode="ﮱ" horiz-adv-x="666" d="M184 463 Q189 463 195 463 Q218 463 243 454 L243 424 Q224 431 206 431 Q198 431 192 430 Q172 426 162 414 Q149 398 149 373 Q149 350 164 332 Q183 312 212 312 L276 312 L276 300 L259 280 L96 280 L96 312 L139 312 Q115 340 115 383 Q115 414 133 435 Q152 459 184 463 Z M830 53 L830 0 L244 0 Q206 0 179 -15 Q146 -35 146 -74 Q146 -100 161 -116 Q180 -138 219 -138 L682 -138 L682 -155 L653 -191 L219 -191 Q149 -191 115 -150 Q91 -120 91 -74 Q91 -12 138 23 Q179 53 244 53 L830 53 Z "/>
<glyph glyph-name="uniFBB2" unicode="﮲" d="M38 635 Q53 635 64 624 Q75 613 75 597 Q75 581 64 570 Q53 559 38 559 Q22 559 11 570 Q0 581 0 597 Q0 613 11 624 Q22 635 38 635 Z "/>
<glyph glyph-name="uniFBB3" unicode="﮳" d="M38 -89 Q53 -89 64 -100 Q75 -111 75 -127 Q75 -143 64 -154 Q53 -165 38 -165 Q22 -165 11 -154 Q0 -143 0 -127 Q0 -111 11 -100 Q22 -89 38 -89 Z "/>
<glyph glyph-name="uniFBB4" unicode="﮴" d="M38 647 Q53 647 64 636 Q75 625 75 609 Q75 593 64 582 Q53 571 38 571 Q22 571 11 582 Q0 593 0 609 Q0 625 11 636 Q22 647 38 647 Z M137 647 Q152 647 163 636 Q174 625 174 609 Q174 593 163 582 Q152 571 137 571 Q121 571 110 582 Q99 593 99 609 Q99 625 110 636 Q121 647 137 647 Z "/>
<glyph glyph-name="uniFBB5" unicode="﮵" d="M38 -89 Q53 -89 64 -100 Q75 -111 75 -127 Q75 -143 64 -154 Q53 -165 38 -165 Q22 -165 11 -154 Q0 -143 0 -127 Q0 -111 11 -100 Q22 -89 38 -89 Z M137 -89 Q152 -89 163 -100 Q174 -111 174 -127 Q174 -143 163 -154 Q152 -165 137 -165 Q121 -165 110 -154 Q99 -143 99 -127 Q99 -111 110 -100 Q121 -89 137 -89 Z "/>
<glyph glyph-name="uniFBB6" unicode="﮶" d="M88 729 Q103 729 114 718 Q125 707 125 692 Q125 676 114 665 Q103 654 88 654 Q72 654 61 665 Q50 676 50 692 Q50 707 61 718 Q72 729 88 729 Z M38 650 Q53 650 64 639 Q75 628 75 613 Q75 597 64 586 Q53 575 38 575 Q22 575 11 586 Q0 597 0 613 Q0 628 11 639 Q22 650 38 650 Z M137 650 Q152 650 163 639 Q174 628 174 613 Q174 597 163 586 Q152 575 137 575 Q121 575 110 586 Q99 597 99 613 Q99 628 110 639 Q121 650 137 650 Z "/>
<glyph glyph-name="uniFBB7" unicode="﮷" d="M88 -90 Q103 -90 114 -101 Q125 -112 125 -127 Q125 -143 114 -154 Q103 -165 88 -165 Q72 -165 61 -154 Q50 -143 50 -127 Q50 -112 61 -101 Q72 -90 88 -90 Z M38 -169 Q53 -169 64 -180 Q75 -191 75 -207 Q75 -222 64 -233 Q53 -244 38 -244 Q22 -244 11 -233 Q0 -222 0 -207 Q0 -191 11 -180 Q22 -169 38 -169 Z M137 -169 Q152 -169 163 -180 Q174 -191 174 -207 Q174 -222 163 -233 Q152 -244 137 -244 Q121 -244 110 -233 Q99 -222 99 -207 Q99 -191 110 -180 Q121 -169 137 -169 Z "/>
<glyph glyph-name="uniFBB9" unicode="﮹" d="M38 -113 Q53 -113 64 -124 Q75 -135 75 -151 Q75 -167 64 -178 Q53 -189 38 -189 Q22 -189 11 -178 Q0 -167 0 -151 Q0 -135 11 -124 Q22 -113 38 -113 Z M137 -113 Q152 -113 163 -124 Q174 -135 174 -151 Q174 -167 163 -178 Q152 -189 137 -189 Q121 -189 110 -178 Q99 -167 99 -151 Q99 -135 110 -124 Q121 -113 137 -113 Z M88 -192 Q103 -192 114 -203 Q125 -214 125 -230 Q125 -245 114 -256 Q103 -267 88 -267 Q72 -267 61 -256 Q50 -245 50 -230 Q50 -214 61 -203 Q72 -192 88 -192 Z "/>
<glyph glyph-name="uniFBFD" unicode="ﯽ" horiz-adv-x="683" d="M127 175 L127 -3 Q127 -90 164 -130 Q197 -166 282 -182 Q306 -186 382 -186 Q458 -186 481 -182 Q555 -168 590 -133 Q636 -89 636 0 L550 0 L527 28 L527 53 L711 53 L711 0 L693 0 Q693 -115 628 -176 Q562 -239 441 -239 L321 -239 Q209 -239 143 -183 Q69 -122 69 -2 L69 151 L99 175 L127 175 Z "/>
<glyph glyph-name="uniFBFE" unicode="ﯾ" horiz-adv-x="304" d="M235 460 L235 83 Q235 49 209 24 Q186 0 154 0 L-4 0 L-4 53 L130 53 Q152 53 164 65 Q177 77 177 100 L177 460 L235 460 Z M91 -128 Q107 -128 118 -139 Q129 -150 129 -166 Q129 -181 118 -192 Q107 -203 91 -203 Q75 -203 64 -192 Q53 -181 53 -166 Q53 -150 64 -139 Q75 -128 91 -128 Z M189 -128 Q204 -128 215 -139 Q226 -150 226 -166 Q226 -181 215 -192 Q204 -203 189 -203 Q173 -203 162 -192 Q151 -181 151 -166 Q151 -150 162 -139 Q173 -128 189 -128 Z "/>
<glyph glyph-name="uniFBFF" unicode="ﯿ" horiz-adv-x="281" d="M235 460 L235 83 Q235 69 229 53 L284 53 L284 0 L241 0 L218 31 L216 31 Q190 0 154 0 L-4 0 L-4 53 L130 53 Q154 53 167 67 Q177 79 177 100 L177 460 L235 460 Z M99 -128 Q115 -128 126 -139 Q137 -150 137 -166 Q137 -181 126 -192 Q115 -203 99 -203 Q83 -203 72 -192 Q61 -181 61 -166 Q61 -150 72 -139 Q83 -128 99 -128 Z M198 -128 Q213 -128 224 -139 Q235 -150 235 -166 Q235 -181 224 -192 Q213 -203 198 -203 Q182 -203 171 -192 Q160 -181 160 -166 Q160 -150 171 -139 Q182 -128 198 -128 Z "/>
<glyph glyph-name="uniFC3D" unicode="ﰽ" horiz-adv-x="1040" d="M890 732 L890 681 L623 528 Q706 514 781 465 Q844 425 892 366 Q985 249 985 114 Q985 99 984 84 Q981 55 966 33 Q942 0 901 0 L693 0 Q693 -115 627 -176 Q561 -239 441 -239 L321 -239 Q208 -239 143 -183 Q69 -122 69 -2 L69 151 L99 175 L127 175 L127 -3 Q127 -90 164 -130 Q197 -166 282 -182 Q306 -186 382 -186 Q458 -186 481 -182 Q555 -168 590 -133 Q635 -89 635 0 L550 0 L527 28 L527 53 L878 53 Q924 53 927 103 Q927 110 927 119 Q927 229 849 329 Q798 395 726 435 Q661 472 592 480 Q587 481 587 486 L587 558 L890 732 Z "/>
<glyph glyph-name="uniFC3E" unicode="ﰾ" horiz-adv-x="1040" d="M890 732 L890 681 L623 528 Q706 514 781 465 Q844 425 892 366 Q985 249 985 114 Q985 99 984 84 Q981 55 966 33 Q942 0 901 0 L693 0 Q693 -115 627 -176 Q561 -239 441 -239 L321 -239 Q208 -239 143 -183 Q69 -122 69 -2 L69 151 L99 175 L127 175 L127 -3 Q127 -90 164 -130 Q197 -166 282 -182 Q306 -186 382 -186 Q458 -186 481 -182 Q555 -168 590 -133 Q635 -89 635 0 L550 0 L527 28 L527 53 L878 53 Q924 53 927 103 Q927 110 927 119 Q927 229 849 329 Q798 395 726 435 Q661 472 592 480 Q587 481 587 486 L587 558 L890 732 Z M329 -298 Q345 -298 356 -309 Q367 -320 367 -336 Q367 -351 356 -362 Q345 -373 329 -373 Q313 -373 302 -362 Q291 -351 291 -336 Q291 -320 302 -309 Q313 -298 329 -298 Z M428 -298 Q443 -298 454 -309 Q465 -320 465 -336 Q465 -351 454 -362 Q443 -373 428 -373 Q412 -373 401 -362 Q390 -351 390 -336 Q390 -320 401 -309 Q412 -298 428 -298 Z "/>
<glyph glyph-name="uniFC59" unicode="ﱙ" horiz-adv-x="983" d="M914 460 L914 83 Q914 49 888 24 Q865 0 833 0 L693 0 Q693 -115 627 -176 Q561 -239 441 -239 L321 -239 Q209 -239 143 -183 Q69 -122 69 -2 L69 151 L99 174 L127 174 L127 -3 Q127 -90 164 -130 Q197 -166 282 -182 Q306 -186 382 -186 Q457 -186 481 -182 Q555 -168 590 -133 Q635 -89 635 0 L550 0 L527 28 L527 53 L809 53 Q856 53 856 100 L856 460 L914 460 Z M769 -128 Q784 -128 795 -139 Q806 -150 806 -166 Q806 -181 795 -192 Q784 -203 769 -203 Q753 -203 742 -192 Q731 -181 731 -166 Q731 -150 742 -139 Q753 -128 769 -128 Z M868 -128 Q883 -128 894 -139 Q905 -150 905 -166 Q905 -181 894 -192 Q883 -203 868 -203 Q852 -203 841 -192 Q830 -181 830 -166 Q830 -150 841 -139 Q852 -128 868 -128 Z "/>
<glyph glyph-name="uniFC5A" unicode="ﱚ" horiz-adv-x="960" d="M914 460 L914 83 Q914 49 888 24 Q865 0 833 0 L693 0 Q693 -115 627 -176 Q561 -239 441 -239 L321 -239 Q209 -239 143 -183 Q69 -122 69 -2 L69 151 L99 174 L127 174 L127 -3 Q127 -90 164 -130 Q197 -166 282 -182 Q306 -186 382 -186 Q457 -186 481 -182 Q555 -168 590 -133 Q635 -89 635 0 L550 0 L527 28 L527 53 L809 53 Q856 53 856 100 L856 460 L914 460 Z M769 -128 Q784 -128 795 -139 Q806 -150 806 -166 Q806 -181 795 -192 Q784 -203 769 -203 Q753 -203 742 -192 Q731 -181 731 -166 Q731 -150 742 -139 Q753 -128 769 -128 Z M868 -128 Q883 -128 894 -139 Q905 -150 905 -166 Q905 -181 894 -192 Q883 -203 868 -203 Q852 -203 841 -192 Q830 -181 830 -166 Q830 -150 841 -139 Q852 -128 868 -128 Z M329 -298 Q344 -298 355 -309 Q366 -320 366 -336 Q366 -351 355 -362 Q344 -373 329 -373 Q313 -373 302 -362 Q291 -351 291 -336 Q291 -320 302 -309 Q313 -298 329 -298 Z M428 -298 Q443 -298 454 -309 Q465 -320 465 -336 Q465 -351 454 -362 Q443 -373 428 -373 Q412 -373 401 -362 Q390 -351 390 -336 Q390 -320 401 -309 Q412 -298 428 -298 Z "/>
<glyph glyph-name="uniFC83" unicode="ﲃ" horiz-adv-x="1006" d="M890 732 L890 681 L623 528 Q706 514 781 465 Q844 425 892 366 Q985 249 985 114 Q985 100 984 84 Q982 69 976 53 L1009 53 L1009 0 L989 0 L967 31 L964 31 Q941 0 901 0 L693 0 Q693 -115 627 -176 Q561 -239 441 -239 L321 -239 Q208 -239 143 -183 Q69 -122 69 -2 L69 151 L99 175 L127 175 L127 -3 Q127 -90 164 -130 Q197 -166 282 -182 Q306 -186 382 -186 Q458 -186 481 -182 Q555 -168 590 -133 Q635 -89 635 0 L550 0 L527 28 L527 53 L878 53 Q924 53 927 103 Q927 110 927 119 Q927 229 849 329 Q798 395 726 435 Q661 472 592 480 Q587 481 587 486 L587 558 L890 732 Z "/>
<glyph glyph-name="uniFC84" unicode="ﲄ" horiz-adv-x="1006" d="M890 732 L890 681 L623 528 Q706 514 781 465 Q844 425 892 366 Q985 249 985 114 Q985 100 984 84 Q982 66 976 53 L1009 53 L1009 0 L989 0 L967 31 L964 31 Q941 0 901 0 L693 0 Q693 -115 627 -176 Q561 -239 441 -239 L321 -239 Q208 -239 143 -183 Q69 -122 69 -2 L69 151 L99 175 L127 175 L127 -3 Q127 -90 164 -130 Q197 -166 282 -182 Q306 -186 382 -186 Q458 -186 481 -182 Q555 -168 590 -133 Q635 -89 635 0 L550 0 L527 28 L527 53 L878 53 Q924 53 927 103 Q927 110 927 119 Q927 229 849 329 Q798 395 726 435 Q661 472 592 480 Q587 481 587 486 L587 558 L890 732 Z M329 -298 Q345 -298 356 -309 Q367 -320 367 -336 Q367 -351 356 -362 Q345 -373 329 -373 Q313 -373 302 -362 Q291 -351 291 -336 Q291 -320 302 -309 Q313 -298 329 -298 Z M428 -298 Q443 -298 454 -309 Q465 -320 465 -336 Q465 -351 454 -362 Q443 -373 428 -373 Q412 -373 401 -362 Q390 -351 390 -336 Q390 -320 401 -309 Q412 -298 428 -298 Z "/>
<glyph glyph-name="uniFC95" unicode="ﲕ" horiz-adv-x="959" d="M914 460 L914 83 Q914 68 908 53 L963 53 L963 0 L920 0 L897 31 L895 31 Q869 0 833 0 L692 0 Q692 -115 627 -176 Q561 -239 441 -239 L321 -239 Q209 -239 143 -183 Q69 -122 69 -2 L69 151 L99 174 L127 174 L127 -3 Q127 -90 164 -130 Q197 -166 282 -182 Q306 -186 382 -186 Q457 -186 481 -182 Q554 -168 590 -133 Q635 -89 635 0 L549 0 L527 28 L527 53 L809 53 Q856 53 856 100 L856 460 L914 460 Z M778 -128 Q794 -128 805 -139 Q816 -150 816 -166 Q816 -181 805 -192 Q794 -203 778 -203 Q762 -203 751 -192 Q740 -181 740 -166 Q740 -150 751 -139 Q762 -128 778 -128 Z M877 -128 Q892 -128 903 -139 Q914 -150 914 -166 Q914 -181 903 -192 Q892 -203 877 -203 Q861 -203 850 -192 Q839 -181 839 -166 Q839 -150 850 -139 Q861 -128 877 -128 Z "/>
<glyph glyph-name="uniFC96" unicode="ﲖ" horiz-adv-x="959" d="M914 460 L914 83 Q914 68 908 53 L963 53 L963 0 L920 0 L897 31 L895 31 Q869 0 833 0 L692 0 Q692 -115 627 -176 Q561 -239 441 -239 L321 -239 Q209 -239 143 -183 Q69 -122 69 -2 L69 151 L99 174 L127 174 L127 -3 Q127 -90 164 -130 Q197 -166 282 -182 Q306 -186 382 -186 Q457 -186 481 -182 Q554 -168 590 -133 Q635 -89 635 0 L549 0 L527 28 L527 53 L809 53 Q856 53 856 100 L856 460 L914 460 Z M778 -128 Q794 -128 805 -139 Q816 -150 816 -166 Q816 -181 805 -192 Q794 -203 778 -203 Q762 -203 751 -192 Q740 -181 740 -166 Q740 -150 751 -139 Q762 -128 778 -128 Z M877 -128 Q892 -128 903 -139 Q914 -150 914 -166 Q914 -181 903 -192 Q892 -203 877 -203 Q861 -203 850 -192 Q839 -181 839 -166 Q839 -150 850 -139 Q861 -128 877 -128 Z M329 -298 Q344 -298 355 -309 Q366 -320 366 -336 Q366 -351 355 -362 Q344 -373 329 -373 Q313 -373 302 -362 Q291 -351 291 -336 Q291 -320 302 -309 Q313 -298 329 -298 Z M428 -298 Q443 -298 454 -309 Q465 -320 465 -336 Q465 -351 454 -362 Q443 -373 428 -373 Q412 -373 401 -362 Q390 -351 390 -336 Q390 -320 401 -309 Q412 -298 428 -298 Z "/>
<glyph glyph-name="uniFD3E" unicode="﴾" horiz-adv-x="538" d="M385 716 L405 701 Q367 652 337 580 Q307 508 294 433 L360 433 L316 389 L269 437 L222 389 L175 433 L241 433 Q268 596 368 716 L385 716 Z M111 368 L154 324 L110 277 L154 233 L111 187 L111 247 L37 273 L37 287 L111 313 L111 368 Z M429 368 L429 313 L501 287 L501 273 L429 247 L429 187 L383 231 L429 277 L383 324 L429 368 Z M269 335 L323 280 L269 226 L215 280 L269 335 Z M316 168 L360 124 L298 124 Q311 69 332 24 Q353 -21 397 -91 L378 -106 L361 -106 Q272 -4 244 124 L175 124 L222 168 L269 120 L316 168 Z "/>
<glyph glyph-name="uniFD3F" unicode="﴿" horiz-adv-x="538" d="M152 716 L169 716 Q270 596 296 433 L363 433 L316 389 L269 437 L221 389 L178 433 L244 433 Q231 508 201 580 Q171 652 133 701 L152 716 Z M109 368 L154 324 L108 277 L154 231 L109 187 L109 247 L37 273 L37 287 L109 313 L109 368 Z M427 368 L427 313 L501 287 L501 273 L427 247 L427 187 L384 233 L428 277 L384 324 L427 368 Z M269 335 L323 280 L269 226 L214 280 L269 335 Z M316 168 L363 124 L294 124 Q265 -4 177 -106 L160 -106 L141 -91 Q185 -21 206 24 Q227 69 240 124 L178 124 L221 168 L269 120 L316 168 Z "/>
<glyph glyph-name="uniFDF2" unicode="ﷲ" horiz-adv-x="1247" d="M710 1082 L710 888 L692 873 L674 873 L674 1082 L710 1082 Z M804 835 L804 730 Q804 711 792 698 Q780 685 758 685 L715 685 L705 696 L704 696 Q701 693 697 690 Q689 685 680 685 L627 685 Q608 685 594 697 Q581 710 581 730 L581 795 L599 810 L616 810 L616 733 Q616 727 619 723 Q624 716 633 716 L658 716 Q666 716 670 721 Q674 725 674 732 L674 810 L710 810 L710 716 L751 716 Q759 716 764 722 Q769 726 769 733 L769 835 L804 835 Z M1178 762 L1178 -1 L1148 -25 L1120 -25 L1120 762 L1178 762 Z M984 613 L984 83 Q984 49 958 24 Q935 0 903 0 L731 0 L709 31 L706 31 Q695 18 681 10 Q663 0 644 0 L490 0 Q448 0 422 35 Q349 -11 276 -12 Q193 -13 134 35 Q55 101 55 223 Q55 299 87 360 Q114 411 159 443 Q219 487 295 486 Q352 486 409 459 L438 483 L467 483 L467 100 Q467 79 479 67 Q493 53 513 53 L621 53 Q645 53 657 67 Q668 79 668 100 L668 613 L725 613 L725 83 Q725 69 719 53 L879 53 Q901 53 913 64 Q926 77 926 100 L926 613 L984 613 Z M302 432 Q235 431 185 389 Q115 329 114 223 Q113 136 170 84 Q215 41 280 42 Q338 43 409 82 L409 406 Q355 433 302 432 Z "/>
</font>
</svg>
